Mixkatalog
 Einloggen
Login
Passwort

Dance Control 08 Hits: 7  

Dance Control 08


Kurzbeschreibung:
Deep Records präsentiert den Dance Control Volume 8 gemixt von DJ Deep, eine weitere Reihe des Real Deep Magic Dance.
 
Crew/DJ: Deep Records Reihe: Dance Control
Stil: Dance Erscheinungsjahr: 1995
Anzahl Tonträger: 1 Spielzeit: 72:30
Trackliste:
    Dancemix:
    Spieldauer 23'48
  1. Intro
  2. Simply Red - Fairground (Remix)
  3. Domenica - Gotta Let You Go
  4. Indian Fire - Try A Little Harder
  5. Shaggy - Boombastic
  6. Porno - I Can Do It Better Myself
  7. Indian Fire - Try A Little Harder
  8. Shaggy - Boombastic
  9. Oregon People - Oregon Jeans
  10. Afrika Bambaataa - Just Get Up & Dance '95
  11. Alex Party - Wrap Me Up
  12. Uplifters - Mr. Real
  13. 2 Unlimited - Do What's Good For Me
  14. Me & My - Dub I Dub
    TB 303 Trip Mix:
    Spieldauer 20'05
  15. Angel Morades feat. Sally Cortes - Welcome To The Factory
  16. Mark N-R-G - Brain Is The Weapon
  17. Rodriguez - Revolution
  18. Intermission - Planet Love (Remix)
  19. Damage Control - Trust (Remix)
  20. Dolls United feat. Jim Knopf - Eine Insel Mit Zwei Bergen
  21. Wippenberg - Neurodancer
  22. Virus - Sun
    Hip Hop Party:
    Spieldauer 28'33
  23. TLC - Waterfalls
  24. A Few Goodman - Tonight
  25. Coolio feat. Lv - Gangster's Paradise
  26. Dr. Dre - Keep Their Heads Ringin'
  27. Stonefunkers - Wreck The Show
  28. C&C Music Factory - I'll Allways Be Around
  29. Little Shawn - Dom Perignon
  30. Naughty By Nature - Clap Your Hands
  31. Ralph Dog - All B'Cruz Of You
  32. Flip & Scrip - She's Got That Bubble
  33. Roman Photo - Sounds Of Summer
  34. Truce - The Finest
  35. Randy Crawford - Give Me The Night
Cue-Informationen:

FILE "filename.mp3" MP3
  TRACK 01 AUDIO
    INDEX 01 00:00:00
  TRACK 02 AUDIO
    INDEX 01 23:50:31
  TRACK 03 AUDIO
    INDEX 01 43:58:15
Wertung: (1)   Hinzugefügt: 29 October 2009
RSS Feed
RSS Feed
Sprache
Deutsch Englisch Französisch
Mixsuche
Suchbegriff
Genauer Wortlaut
Alle Worte (UND)
Ein Wort (ODER)
Statistik
14805 Mixe eingetragen
14492 Tracklisten
Newsletter
E-Mail
Anmelden
Abmelden
SPONSOREN