Mixkatalog
 Einloggen
Login
Passwort

Dance Control 06 Hits: 2  

Dance Control 06


Kurzbeschreibung:
Deep Records präsentiert den Dance Control Volume 6 gemixt von DJ Deep, eine weitere Reihe des Real Deep Magic Dance.
 
Crew/DJ: Deep Records Reihe: Dance Control
Stil: Dance Erscheinungsjahr: 1995
Anzahl Tonträger: 1 Spielzeit: 73:35
Trackliste:
    Dancemix:
    Spieldauer 27'24
  1. Intro
  2. Haddaway - Fly Away
  3. Garfield - Cool Cat
  4. Wave Kid - Baby I Need Your Lovin
  5. Prezioso feat. Daphnes - Anybody Anyway
  6. Beatproductions - I Need Your Love
  7. B-Cap - Send Me An Angel (Remix)
  8. Paris Underground - Set Me Free
  9. Tranceformer - Lunatic Angel
  10. Jt Company - Feel It
  11. Move To Groove - Let Me Be
  12. Star Wash - Disco Fans (Remix)
  13. Jam & Spoon - Angel
  14. Mr. President - 4 On The Floor
    Lost In Space:
    Spieldauer 25'04
  15. Space Frog - Lost In Space
  16. Ironic Beat - Sensual Flying
  17. Wounderboy - Wave Of Rave
  18. Jam & Spoon's Hand On Yello - Great Mission
  19. Mandela - Australia (Remix)
  20. Ironic Beat - Move On, Groove On
  21. Paragliders - Oasis
  22. Anonymous - I'm Here To Spread Love
  23. Act Of Fear - Lost In Love
  24. Jam & Spoon - Angel
  25. Mikado - Feel The Bass (Chapter Two)
  26. Interactive - Living Without Your Love
  27. DJ Erik feat. Alina - Wonderland
  28. Source T-10 - Emotion
  29. DJ Cook & DJ E.B.O - Mind Of Delirium
  30. Farmhouse - Old Bill's Song
    Soul Show:
    Spieldauer 21'00
  31. A.D.O.R - One For The Trouble
  32. Chris C - Shine A Light
  33. Boyz 2 Men - Thank You
  34. Truce - Treat U Right
  35. Diana King - Shy Guy
  36. Soul For Real - Candy Rain
  37. Beverley Knight - Flavour Of The Old Skool
  38. TLC - Creep
Cue-Informationen:

FILE "filename.mp3" MP3
  TRACK 01 AUDIO
    INDEX 01 00:00:00
  TRACK 02 AUDIO
    INDEX 01 27:25:32
  TRACK 03 AUDIO
    INDEX 01 52:32:73
Wertung: (1)   Hinzugefügt: 29 October 2009
RSS Feed
RSS Feed
Sprache
Deutsch Englisch Französisch
Mixsuche
Suchbegriff
Genauer Wortlaut
Alle Worte (UND)
Ein Wort (ODER)
Statistik
14805 Mixe eingetragen
14492 Tracklisten
Newsletter
E-Mail
Anmelden
Abmelden
SPONSOREN