Mixkatalog
 Einloggen
Login
Passwort

Dance Control 03 Hits: 1  

Dance Control 03


Kurzbeschreibung:
Deep Records präsentiert den Dance Control Volume 3 gemixt von DJ Deep, eine weitere Reihe des Real Deep Magic Dance.
 
Crew/DJ: Deep Records Reihe: Dance Control
Stil: Dance Erscheinungsjahr: 1995
Anzahl Tonträger: 1 Spielzeit: 73:03
Trackliste:
    Dancemix:
    Spieldauer 23'08
  1. Intro
  2. 2 Brothers On The 4th Floor - Let Me Be Free
  3. Strong Accents - Strong Enough
  4. Pet Shop Boys - Yesterday When I Was Mad
  5. Kurada - Lokomotiva
  6. Masterboy - Feel The Heat Of The Night
  7. Magic Affair - Under The Sea
  8. DJ Bobo - I Know What I Want
  9. X-Pander - My Generation
  10. 49ers - Rockin' My Body
  11. CB Milton - Open Your Heart
  12. Pamela Fernandez - Kickin' In The Beat
  13. Traffic Light - No Matter What U Do
  14. Kim Sanders - Ride
  15. Masterboy - Is This The Love
  16. Natascha Wright - Lovely Lie
    Odyssey To Raveland:
    Spieldauer 28'35
  17. Into The Blue - God's Groove
  18. Taucher - Fantasy
  19. Ravebase - To The Beat You'll
  20. Yves Deruyter IV - Calling Earth
  21. Nip Collective - I'm About
  22. Castello - Il Sogno
  23. Westbam - Bam Bam Bam
  24. God's Groove - Into The Blue
  25. Mikado - Feel The Bass
  26. Marusha - Trip To Raveland
  27. Signal Response II - The Signal
  28. U96 - Love Religion
  29. General Base - Even On The Floor
  30. Sweeper - Oh Carol
  31. Mark 'Oh - Tears Don't Lie
    Club Beat:
    Spieldauer 21'13
  32. Intro
  33. M People - Sight For Score Eyes
  34. Sound Of Blackness - I Belive
  35. Ace Of Base - Living In Danger
  36. Raze - Break For Love '94
  37. London Beat - Come Back
  38. Brand New Heavies - Spend Some Time
  39. The Tyrell Corporation - You're Not Here
Cue-Informationen:

FILE "filename.mp3" MP3
  TRACK 01 AUDIO
    INDEX 01 00:00:00
  TRACK 02 AUDIO
    INDEX 01 23:07:61
  TRACK 03 AUDIO
    INDEX 01 51:42:53
Wertung: (1)   Hinzugefügt: 29 October 2009
RSS Feed
RSS Feed
Sprache
Deutsch Englisch Französisch
Mixsuche
Suchbegriff
Genauer Wortlaut
Alle Worte (UND)
Ein Wort (ODER)
Statistik
14805 Mixe eingetragen
14492 Tracklisten
Newsletter
E-Mail
Anmelden
Abmelden
SPONSOREN