Mixkatalog
 Einloggen
Login
Passwort

Black Mix Special No. 24 Hits: 154  

Black Mix Special No. 24


Kurzbeschreibung:
Dreamteam präsentiert Black Mix Special Nummer 24, gemixt von Pit & Joe.
 
Crew/DJ: Dreamteam Reihe: Black Special
Stil: RnB Erscheinungsjahr: 2002
Anzahl Tonträger: 1 Spielzeit: 73:59
Trackliste:
Cue-Informationen:

FILE "filename.mp3" MP3
  TRACK 01 AUDIO
    INDEX 01 00:00:00
  TRACK 02 AUDIO
    INDEX 01 01:30:11
  TRACK 03 AUDIO
    INDEX 01 03:43:23
  TRACK 04 AUDIO
    INDEX 01 05:50:16
  TRACK 05 AUDIO
    INDEX 01 07:02:17
  TRACK 06 AUDIO
    INDEX 01 07:52:31
  TRACK 07 AUDIO
    INDEX 01 10:00:31
  TRACK 08 AUDIO
    INDEX 01 11:37:00
  TRACK 09 AUDIO
    INDEX 01 13:12:31
  TRACK 10 AUDIO
    INDEX 01 14:07:20
  TRACK 11 AUDIO
    INDEX 01 15:01:41
  TRACK 12 AUDIO
    INDEX 01 16:06:06
  TRACK 13 AUDIO
    INDEX 01 17:00:32
  TRACK 14 AUDIO
    INDEX 01 18:25:47
  TRACK 15 AUDIO
    INDEX 01 20:00:32
  TRACK 16 AUDIO
    INDEX 01 22:16:05
  TRACK 17 AUDIO
    INDEX 01 23:20:19
  TRACK 18 AUDIO
    INDEX 01 24:25:49
  TRACK 19 AUDIO
    INDEX 01 26:40:09
  TRACK 20 AUDIO
    INDEX 01 28:15:17
  TRACK 21 AUDIO
    INDEX 01 29:56:24
  TRACK 22 AUDIO
    INDEX 01 31:20:22
  TRACK 23 AUDIO
    INDEX 01 32:41:09
  TRACK 24 AUDIO
    INDEX 01 33:02:45
  TRACK 25 AUDIO
    INDEX 01 35:20:20
  TRACK 26 AUDIO
    INDEX 01 36:00:54
  TRACK 27 AUDIO
    INDEX 01 37:20:70
  TRACK 28 AUDIO
    INDEX 01 38:22:15
  TRACK 29 AUDIO
    INDEX 01 39:47:36
  TRACK 30 AUDIO
    INDEX 01 40:48:07
  TRACK 31 AUDIO
    INDEX 01 42:05:24
  TRACK 32 AUDIO
    INDEX 01 44:04:52
  TRACK 33 AUDIO
    INDEX 01 45:30:50
  TRACK 34 AUDIO
    INDEX 01 47:04:05
  TRACK 35 AUDIO
    INDEX 01 48:20:56
  TRACK 36 AUDIO
    INDEX 01 49:51:32
Wertung: (1)  
Hinzugefügt: 28 October 2009
RSS Feed
RSS Feed
Sprache
Deutsch Englisch Französisch
Mixsuche
Suchbegriff
Genauer Wortlaut
Alle Worte (UND)
Ein Wort (ODER)
Statistik
13329 Mixe eingetragen
13035 Tracklisten
Newsletter
E-Mail
Anmelden
Abmelden
SPONSOREN