Mixkatalog
 Einloggen
Login
Passwort

Hit-Mix Die Nr. 1 Teil 35 Hits: 1  

Hit-Mix Die Nr. 1 Teil 35


Kurzbeschreibung:
Hit-Mix Records präsentiert Hit-Mix Die Nr. 1 Teil 35. Gutes Aus Deutschen Landen...
 
Crew/DJ: Hit-Mix Records Reihe: Hit Mix
Stil: Schlager Erscheinungsjahr: 2003
Anzahl Tonträger: 1 Spielzeit: 75:54
Trackliste:
    Der Deutsche Hit Mix:
  1. Michael Wendler - Warum Lügen Die Sterne
  2. Denise - Bei Dir Brennt Noch Licht
  3. Aleks Schmidt - 13 Tage
  4. Joyo - Tiamo Ma Tu
  5. Sandy Wagner - Ich Schicke Dich In Die Wüste
  6. Nadine Norell - Chinaboy
  7. Pierre Mertien - Kein Stern Glüht Nur Eine Nacht
  8. Marc D. - Es Tut Mir Leid
  9. Nadine Norell - 24 Stunden
  10. Oliver Frank - E-Mail To Heaven
  11. Lollies - Bei Dir Sein
  12. Michael Wendler - Seitensprünge
  13. Hansi Süssenbach - Baby, Du Bist Nicht Alleine
  14. Timo - Halt
  15. Nico Gemba - Nie Mehr Ein Casanova
  16. Oliver Frank - Einmal Ist Keinmal
  17. Jeannine - Spiel Nicht Mit Der Liebe
  18. Tommy Fischer - Ich Bin Frei
  19. Jeannine - In Einer Nacht Wie Dieser
  20. Tommy Fux - Von Mir Aus Kannst Du Geh'n
  21. Sandro De Ville - Zum Glück Gibt Es Die Samstagnacht
  22. Kirsteen - Weißt Du Schon
  23. Georg Le Bonsai - Ich Bin Single
  24. Marco Kloss - Du Bist 'Ne Sau(gute) Lügnerin
    Der Deutsche Festzelthammer-Mix:
  25. Jürgen Drews - Der Festzelthammer
  26. Wolfgang Petry - Wahnsinn
  27. Roberto Blanco - Ein Bisschen Spass Muss Sein
  28. Antonia - Er Hat Ein Knallrotes Gummiboot
  29. DJ Ötzi - Today Is The Day
  30. Die Luderz feat. DJ Alm Klaus - Hey Kleines Luder
  31. Olaf Henning - Solang Wir Leben
  32. Peter Wackel - Party, Palmen, Weiber und Ein Bier
  33. Möhre - Wir Haben Doch Keine Zeit
  34. Michael Holm - Barfuss Im Regen
  35. Jürgen - Geile Zeiten
    Bonustrack:
  36. Die Inselfeger - Der 70er Oh-Oh-Mix
  37. Pharao - Ich Seh'n Mich Nach Dir
  38. Chris Rabatz - Küsser Polonaise
  39. Guido Hoffmann - Aus Der Höhle Des Löwen
  40. Frank Cordes - Ja, Ja Die Ruhrpottfrau'n
  41. Cordalis - Eins, Zwei, Drei
  42. Van Dango - Maskenball
  43. Willy Kirmes - Oh Alele
  44. Wind - Caribean Girl
Cue-Informationen:

FILE "filename.mp3" MP3
  TRACK 01 AUDIO
    INDEX 01 00:00:00
  TRACK 02 AUDIO
    INDEX 01 31:08:09
  TRACK 03 AUDIO
    INDEX 01 44:41:73
  TRACK 04 AUDIO
    INDEX 01 49:58:64
  TRACK 05 AUDIO
    INDEX 01 53:09:15
  TRACK 06 AUDIO
    INDEX 01 56:12:67
  TRACK 07 AUDIO
    INDEX 01 59:28:56
  TRACK 08 AUDIO
    INDEX 01 62:53:51
  TRACK 09 AUDIO
    INDEX 01 66:15:08
  TRACK 10 AUDIO
    INDEX 01 69:22:08
  TRACK 11 AUDIO
    INDEX 01 72:56:19
Wertung: (1)  
Hinzugefügt: 23 July 2011
RSS Feed
RSS Feed
Sprache
Deutsch Englisch Französisch
Mixsuche
Suchbegriff
Genauer Wortlaut
Alle Worte (UND)
Ein Wort (ODER)
Statistik
14711 Mixe eingetragen
14399 Tracklisten
Newsletter
E-Mail
Anmelden
Abmelden
SPONSOREN