Mixkatalog
 Einloggen
Login
Passwort

D.J. Time Best Of 2019 Hits: 91  

D.J. Time Best Of 2019


Kurzbeschreibung:
DJ Hot J präsentiert den Mix DJ Time Best Of 2019.
 
Crew/DJ: DJ Hot J Reihe: DJ Time
Stil: House Erscheinungsjahr: 2019
Anzahl Tonträger: 1 Spielzeit: 78:34
Trackliste:
Cue-Informationen:

PERFORMER "Va"
TITLE "D.J. Time Best Of 2019 (Mixed By D.J. Hot J)"
FILE "01-va-d.j._time_best_of_2019_(mixed_by_d.j._hot_j).mp3" MP3
  TRACK 01 AUDIO
    TITLE "Intro"
    PERFORMER "DJ Hot J"
    INDEX 01 00:00:00
  TRACK 02 AUDIO
    TITLE "Ride It (Extended)"
    PERFORMER "Regard"
    INDEX 01 00:14:00
  TRACK 03 AUDIO
    TITLE "Stay (Don't Go Away)  (Nico De Andrea Extended Mix)"
    PERFORMER "David Guetta feat. Raye"
    INDEX 01 03:18:73
  TRACK 04 AUDIO
    TITLE "No Ties (Extended)"
    PERFORMER "Disciples"
    INDEX 01 06:38:02
  TRACK 05 AUDIO
    TITLE "Joys (Purple Disco Machine Remix)"
    PERFORMER "Roberto Surace"
    INDEX 01 10:34:26
  TRACK 06 AUDIO
    TITLE "Late Night Feelings (Jax Jones Midnight Snack Remix)"
    PERFORMER "Mark Ronson feat. Lykke Li"
    INDEX 01 13:27:42
  TRACK 07 AUDIO
    TITLE "Piece Of Your Heart (Amice Remix)"
    PERFORMER "Meduza feat. Goodboys"
    INDEX 01 17:01:58
  TRACK 08 AUDIO
    TITLE "Giant (Amice Remix)"
    PERFORMER "Calvin Harris & RagnBone Man"
    INDEX 01 19:25:27
  TRACK 09 AUDIO
    TITLE "All Day & Night (Keepin It Heale & Az2a Remix)"
    PERFORMER "Jax Jones, Martin Solveig & Madison Beer"
    INDEX 01 23:29:23
  TRACK 10 AUDIO
    TITLE "We Got That Cool (Extended Mix)"
    PERFORMER "Afrojack & Icona Pop"
    INDEX 01 26:06:52
  TRACK 11 AUDIO
    TITLE "Tough Love (Amice Remix)"
    PERFORMER "Avicii feat. Agnes & Vargas & Lagola"
    INDEX 01 28:49:20
  TRACK 12 AUDIO
    TITLE "Turn Me On (Extended)"
    PERFORMER "Riton, Oliver Heldens feat. Vula"
    INDEX 01 31:35:26
  TRACK 13 AUDIO
    TITLE "Higher Love (Pt.2) (Kwikmix by DJ Brian Howe)"
    PERFORMER "Kygo & Whitney Houston"
    INDEX 01 34:52:52
  TRACK 14 AUDIO
    TITLE "The Power (Leftwing & Kody Extended Club Remix)"
    PERFORMER "Duke Dumont feat. Zak Abel"
    INDEX 01 37:13:29
  TRACK 15 AUDIO
    TITLE "Baianá (Jack Back Club Remix)"
    PERFORMER "Barbatuques"
    INDEX 01 41:37:45
  TRACK 16 AUDIO
    TITLE "Loco Contigo (Cedric Gervais Remix)"
    PERFORMER "DJ Snake, J Balvin & Tyga"
    INDEX 01 45:38:41
  TRACK 17 AUDIO
    TITLE "1000 Years (Extended Mix)"
    PERFORMER "Bingo Players"
    INDEX 01 49:43:29
  TRACK 18 AUDIO
    TITLE "You're Not Alone (Extended Mix)"
    PERFORMER "Don Diablo feat. Kiiara"
    INDEX 01 52:25:69
  TRACK 19 AUDIO
    TITLE "Ritual (Original Mix)"
    PERFORMER "Tiësto, Rita Ora, Jonas Blue"
    INDEX 01 55:51:11
  TRACK 20 AUDIO
    TITLE "Turn Around (Main Circus Extended Remix)"
    PERFORMER "Phats & Small"
    INDEX 01 59:27:72
  TRACK 21 AUDIO
    TITLE "You Got Me (Vocal Mix)"
    PERFORMER "The Trixx "
    INDEX 01 63:04:11
  TRACK 22 AUDIO
    TITLE "Oh Yes (Rockin' With The Best) (Original Mix)"
    PERFORMER "Laidback Luke, Keanu Silva"
    INDEX 01 65:59:13
  TRACK 23 AUDIO
    TITLE "Speechless (Lucas & Steve Extended Remix)"
    PERFORMER "Robin Schulz feat. Erika Sirola"
    INDEX 01 68:49:09
  TRACK 24 AUDIO
    TITLE "Summer Days (Tiësto Remix)"
    PERFORMER "Martin Garrix feat. Macklemore & Fall Out Boy"
    INDEX 01 72:32:12
  TRACK 25 AUDIO
    TITLE "Mama (Tiëstos Big Room Remix)"
    PERFORMER "Clean Bandit feat. Ellie Goulding"
    INDEX 01 75:55:68
Wertung: ()  
Hinzugefügt: 6 January 2022
Bewerte als Erster diesen Mix:
RSS Feed
RSS Feed
Sprache
Deutsch Englisch Französisch
Mixsuche
Suchbegriff
Genauer Wortlaut
Alle Worte (UND)
Ein Wort (ODER)
Statistik
14581 Mixe eingetragen
14271 Tracklisten
Newsletter
E-Mail
Anmelden
Abmelden
SPONSOREN