Mixkatalog
 Einloggen
Login
Passwort

D.J. Time Best Of 2020 Hits: 90  

D.J. Time Best Of 2020


Kurzbeschreibung:
DJ Hot J präsentiert den Mix DJ Time Best Of 2020.
 
Crew/DJ: DJ Hot J Reihe: DJ Time
Stil: House Erscheinungsjahr: 2020
Anzahl Tonträger: 1 Spielzeit: 74:58
Trackliste:
Cue-Informationen:

PERFORMER "Va"
TITLE "D.J. Time Best Of 2020 (Mixed By D.J. Hot J)"
FILE "01-va-d.j._time_best_of_2020_(mixed_by_d.j._hot_j).mp3" MP3
  TRACK 01 AUDIO
    TITLE "Intro"
    PERFORMER "DJ Hot J"
    INDEX 01 00:00:00
  TRACK 02 AUDIO
    TITLE "Nightcrawler (Extended)"
    PERFORMER "Duke Dumont feat. Say Lou Lou"
    INDEX 01 00:12:33
  TRACK 03 AUDIO
    TITLE "Magic (Purple Disco Machine Extended Mix)"
    PERFORMER "Kylie Minogue"
    INDEX 01 06:18:27
  TRACK 04 AUDIO
    TITLE "Rain On Me (Purple Disco Machine Remix)"
    PERFORMER "Lady Gaga, Ariana Grande"
    INDEX 01 09:47:67
  TRACK 05 AUDIO
    TITLE "In My Arms (Extended Mix)"
    PERFORMER "Purple Disco Machine"
    INDEX 01 15:46:67
  TRACK 06 AUDIO
    TITLE "I Got You (Extended)"
    PERFORMER "Disciples"
    INDEX 01 20:51:22
  TRACK 07 AUDIO
    TITLE "Take A Chance (Extended Mix)"
    PERFORMER "Oliver Heldens"
    INDEX 01 24:29:67
  TRACK 08 AUDIO
    TITLE "Let's Love (Charlie Lane Extended)"
    PERFORMER "David Guetta feat. Sia"
    INDEX 01 28:35:64
  TRACK 09 AUDIO
    TITLE "Alane (Yves V Remix)"
    PERFORMER "Robin Schulz & Wes"
    INDEX 01 31:32:37
  TRACK 10 AUDIO
    TITLE "Tequila (Extended)"
    PERFORMER "Jax Jones, Martin Solveig, Raye & Europa"
    INDEX 01 34:09:73
  TRACK 11 AUDIO
    TITLE "Roses (Imanbek Remix Extended)"
    PERFORMER "Saint Jhn"
    INDEX 01 38:21:37
  TRACK 12 AUDIO
    TITLE "Born To Aguella (Luke Db Mash Up Mix)"
    PERFORMER "Meduza vs. Sllash & Doppe"
    INDEX 01 41:41:18
  TRACK 13 AUDIO
    TITLE "Dare Me (Extended Mix)"
    PERFORMER "Nervo & Plastik Funk & Tim Morrison"
    INDEX 01 44:30:15
  TRACK 14 AUDIO
    TITLE "Mesmerize (Extended)"
    PERFORMER "Duck Sauce"
    INDEX 01 47:19:13
  TRACK 15 AUDIO
    TITLE "Waiting On My Love (Extended Mix)"
    PERFORMER "Tom Staar & Kryder feat. Ebson"
    INDEX 01 51:24:35
  TRACK 16 AUDIO
    TITLE "Elektro (Extended Mix)"
    PERFORMER "Outwork, Mr. Gee, Dynoro"
    INDEX 01 54:44:48
  TRACK 17 AUDIO
    TITLE "Head & Heart (Extended Mix)"
    PERFORMER "Joel Corry feat. MNEK"
    INDEX 01 57:04:60
  TRACK 18 AUDIO
    TITLE "Moving (Original Mix)"
    PERFORMER "Love Regenerator X Eli Brown"
    INDEX 01 60:39:63
  TRACK 19 AUDIO
    TITLE "Walking Funny (Extended Mix)"
    PERFORMER "Basto"
    INDEX 01 66:06:19
  TRACK 20 AUDIO
    TITLE "Toast Hawaii (Extended Mix)"
    PERFORMER "Ummet Ozcan & Le Shuuk"
    INDEX 01 68:36:02
  TRACK 21 AUDIO
    TITLE "Do It For You (Extended Mix)"
    PERFORMER "W&W x Lucas & Steve"
    INDEX 01 71:14:19
Wertung: ()  
Hinzugefügt: 6 January 2022
Bewerte als Erster diesen Mix:
RSS Feed
RSS Feed
Sprache
Deutsch Englisch Französisch
Mixsuche
Suchbegriff
Genauer Wortlaut
Alle Worte (UND)
Ein Wort (ODER)
Statistik
14581 Mixe eingetragen
14271 Tracklisten
Newsletter
E-Mail
Anmelden
Abmelden
SPONSOREN