Mixkatalog
 Einloggen
Login
Passwort

On The Beach 2020 Hits: 95  

On The Beach 2020


Kurzbeschreibung:
DJ Hot J präsentiert den Mix On The Beach 2020.
 
Crew/DJ: DJ Hot J Reihe: On The Beach
Stil: House Erscheinungsjahr: 2020
Anzahl Tonträger: 1 Spielzeit: 76:21
Trackliste:
Cue-Informationen:

PERFORMER "Va"
TITLE "On The Beach 2020 (Mixed By D.J. Hot J)"
FILE "01-va-on_the_beach_2020_(mixed_by_d.j._hot_j).mp3" MP3
  TRACK 01 AUDIO
    TITLE "Intro"
    PERFORMER "DJ Hot J"
    INDEX 01 00:00:00
  TRACK 02 AUDIO
    TITLE "Hypnotized (Extended Mix)"
    PERFORMER "Purple Disco Machine feat. Sophie & the Giants"
    INDEX 01 01:20:35
  TRACK 03 AUDIO
    TITLE "Nightcrawler (Extended Mix)"
    PERFORMER "Duke Dumont feat. Say Lou Lou"
    INDEX 01 05:49:36
  TRACK 04 AUDIO
    TITLE "Better On My Own (Extended Mix)"
    PERFORMER "Disciples feat. Anabel Englund"
    INDEX 01 10:26:06
  TRACK 05 AUDIO
    TITLE "Details (Extended Mix)"
    PERFORMER "Oliver Heldens feat. Boy Matthews"
    INDEX 01 14:58:07
  TRACK 06 AUDIO
    TITLE "I'm On My Way"
    PERFORMER "Bob Sinclar feat. OMI"
    INDEX 01 17:54:07
  TRACK 07 AUDIO
    TITLE "Alane"
    PERFORMER "Robin Schulz & Wes"
    INDEX 01 20:46:04
  TRACK 08 AUDIO
    TITLE "Tequila (Extended Mix)"
    PERFORMER "Jax Jones, Martin Solveig, Raye & Europa"
    INDEX 01 23:33:62
  TRACK 09 AUDIO
    TITLE "Vamos A La Playa"
    PERFORMER "Tom Novy feat. Bella"
    INDEX 01 26:55:54
  TRACK 10 AUDIO
    TITLE "Roses (Imanbek Remix Extended)"
    PERFORMER "Saint Jhn"
    INDEX 01 29:46:03
  TRACK 11 AUDIO
    TITLE "Breaking Me (Extended Version)"
    PERFORMER "Topic, A7S"
    INDEX 01 33:07:22
  TRACK 12 AUDIO
    TITLE "Whoomp! (Extended Mix)"
    PERFORMER "Superlover"
    INDEX 01 36:16:74
  TRACK 13 AUDIO
    TITLE "Waiting On My Love (Extended Mix)"
    PERFORMER "Tom Staar & Kryder feat. Ebson"
    INDEX 01 40:07:58
  TRACK 14 AUDIO
    TITLE "Moving (Original Mix)"
    PERFORMER "Love Regenerator X Eli Brown"
    INDEX 01 43:30:40
  TRACK 15 AUDIO
    TITLE "Macao (Gabry Venus Remix)"
    PERFORMER "Pato's Groove"
    INDEX 01 49:11:13
  TRACK 16 AUDIO
    TITLE "If You Wanna (Extended Version)"
    PERFORMER "Promise Land"
    INDEX 01 53:16:68
  TRACK 17 AUDIO
    TITLE "Discopolis 2.0 (Meduza Extended Remix)"
    PERFORMER "Lifelike & Kris Menace "
    INDEX 01 56:59:47
  TRACK 18 AUDIO
    TITLE "9PM (Till I Come) (Extended Mix)"
    PERFORMER "Mojjo & Ralk feat. Ocana"
    INDEX 01 62:17:65
  TRACK 19 AUDIO
    TITLE "Sigil (Emi Galvan Remix)"
    PERFORMER "Beije"
    INDEX 01 66:06:61
  TRACK 20 AUDIO
    TITLE "Be Free (Original Mix)"
    PERFORMER "Soulvation"
    INDEX 01 72:46:09
Wertung: ()  
Hinzugefügt: 6 January 2022
Bewerte als Erster diesen Mix:
RSS Feed
RSS Feed
Sprache
Deutsch Englisch Französisch
Mixsuche
Suchbegriff
Genauer Wortlaut
Alle Worte (UND)
Ein Wort (ODER)
Statistik
14581 Mixe eingetragen
14271 Tracklisten
Newsletter
E-Mail
Anmelden
Abmelden
SPONSOREN