Mixkatalog
 Einloggen
Login
Passwort

Depeche Mode In The Mix Hits: 1  

Depeche Mode In The Mix


Kurzbeschreibung:
Deep präsentiert Depeche Mode In The Mix.
 
Crew/DJ: Deep Reihe: Deep Artist Mixe
Stil: Elektro Erscheinungsjahr: 2001
CDs: 1 Spielzeit: 73:57
Trackliste:
Cue-Informationen:

FILE "filename.mp3" MP3
  TRACK 01 AUDIO
    INDEX 01 00:00:00
  TRACK 02 AUDIO
    INDEX 01 00:20:18
  TRACK 03 AUDIO
    INDEX 01 02:37:63
  TRACK 04 AUDIO
    INDEX 01 04:25:56
  TRACK 05 AUDIO
    INDEX 01 06:07:22
  TRACK 06 AUDIO
    INDEX 01 08:08:19
  TRACK 07 AUDIO
    INDEX 01 10:06:26
  TRACK 08 AUDIO
    INDEX 01 12:41:08
  TRACK 09 AUDIO
    INDEX 01 14:47:63
  TRACK 10 AUDIO
    INDEX 01 16:42:48
  TRACK 11 AUDIO
    INDEX 01 19:06:13
  TRACK 12 AUDIO
    INDEX 01 21:03:52
  TRACK 13 AUDIO
    INDEX 01 22:37:37
  TRACK 14 AUDIO
    INDEX 01 24:39:26
  TRACK 15 AUDIO
    INDEX 01 26:14:11
  TRACK 16 AUDIO
    INDEX 01 27:59:00
  TRACK 17 AUDIO
    INDEX 01 29:55:25
  TRACK 18 AUDIO
    INDEX 01 32:14:52
  TRACK 19 AUDIO
    INDEX 01 34:25:74
  TRACK 20 AUDIO
    INDEX 01 36:23:54
  TRACK 21 AUDIO
    INDEX 01 38:21:63
  TRACK 22 AUDIO
    INDEX 01 40:26:10
  TRACK 23 AUDIO
    INDEX 01 42:13:54
  TRACK 24 AUDIO
    INDEX 01 44:01:25
  TRACK 25 AUDIO
    INDEX 01 45:34:40
  TRACK 26 AUDIO
    INDEX 01 47:29:46
  TRACK 27 AUDIO
    INDEX 01 49:46:38
  TRACK 28 AUDIO
    INDEX 01 51:56:02
  TRACK 29 AUDIO
    INDEX 01 53:53:48
  TRACK 30 AUDIO
    INDEX 01 55:58:31
  TRACK 31 AUDIO
    INDEX 01 58:02:30
  TRACK 32 AUDIO
    INDEX 01 60:22:35
  TRACK 33 AUDIO
    INDEX 01 62:42:41
  TRACK 34 AUDIO
    INDEX 01 64:26:39
  TRACK 35 AUDIO
    INDEX 01 66:37:60
  TRACK 36 AUDIO
    INDEX 01 69:01:00
Wertung: (10)  
Hinzugefügt: 9 July 2011
RSS Feed
RSS Feed
Sprache
Deutsch Englisch Französisch
Mixsuche
Suchbegriff
Genauer Wortlaut
Alle Worte (UND)
Ein Wort (ODER)
Statistik
29581 Mixe eingetragen
28170 Tracklisten
Newsletter
E-Mail
Anmelden
Abmelden
SPONSOREN