Mixkatalog
 Einloggen
Login
Passwort

Fox To Dance 28 Hits: 4  

Fox To Dance 28


Kurzbeschreibung:
DJ MG hat für Fox To Dance Serie einen Mix erstellt. Erschien als Fox To Dance In The Mix Volume 28.
 
Crew/DJ: DJ MG (Mixchef) Reihe: Sonstige
Stil: Fox Erscheinungsjahr: 2020
Anzahl Tonträger: 1 Spielzeit: 28:01
Trackliste:
Cue-Informationen:

FILE "filename.mp3" MP3
  TRACK 01 AUDIO
    INDEX 01 00:00:00
  TRACK 02 AUDIO
    INDEX 01 01:03:38
  TRACK 03 AUDIO
    INDEX 01 01:59:56
  TRACK 04 AUDIO
    INDEX 01 03:11:25
  TRACK 05 AUDIO
    INDEX 01 04:43:25
  TRACK 06 AUDIO
    INDEX 01 06:01:50
  TRACK 07 AUDIO
    INDEX 01 07:05:50
  TRACK 08 AUDIO
    INDEX 01 08:16:01
  TRACK 09 AUDIO
    INDEX 01 09:28:29
  TRACK 10 AUDIO
    INDEX 01 10:49:07
  TRACK 11 AUDIO
    INDEX 01 12:02:66
  TRACK 12 AUDIO
    INDEX 01 13:32:52
  TRACK 13 AUDIO
    INDEX 01 14:31:45
  TRACK 14 AUDIO
    INDEX 01 15:41:17
  TRACK 15 AUDIO
    INDEX 01 17:09:51
  TRACK 16 AUDIO
    INDEX 01 18:37:64
  TRACK 17 AUDIO
    INDEX 01 19:35:68
  TRACK 18 AUDIO
    INDEX 01 21:07:27
  TRACK 19 AUDIO
    INDEX 01 22:31:14
  TRACK 20 AUDIO
    INDEX 01 23:26:38
  TRACK 21 AUDIO
    INDEX 01 24:43:71
Wertung: ()  
Hinzugefügt: 27 September 2020
Bewerte als Erster diesen Mix:
RSS Feed
RSS Feed
Sprache
Deutsch Englisch Französisch
Mixsuche
Suchbegriff
Genauer Wortlaut
Alle Worte (UND)
Ein Wort (ODER)
Statistik
13104 Mixe eingetragen
12814 Tracklisten
Newsletter
E-Mail
Anmelden
Abmelden
SPONSOREN