Mixkatalog
 Einloggen
Login
Passwort

The New Dance Projekt 14 Hits: 20  

The New Dance Projekt 14


Kurzbeschreibung:
DJ Rik präsentiert seinen neuen Mix The New Dance Projekt 14 Schlager Special.
 
Crew/DJ: DJ Rik Reihe: The New Dance Projekt
Stil: Schlager Erscheinungsjahr: 2020
Anzahl Tonträger: 1 Spielzeit: 75:42
Trackliste:
Cue-Informationen:

FILE "filename.mp3" MP3
  TRACK 01 AUDIO
    INDEX 01 00:00:00
  TRACK 02 AUDIO
    INDEX 01 01:13:50
  TRACK 03 AUDIO
    INDEX 01 02:37:44
  TRACK 04 AUDIO
    INDEX 01 03:17:56
  TRACK 05 AUDIO
    INDEX 01 04:19:53
  TRACK 06 AUDIO
    INDEX 01 05:34:67
  TRACK 07 AUDIO
    INDEX 01 07:19:48
  TRACK 08 AUDIO
    INDEX 01 09:06:71
  TRACK 09 AUDIO
    INDEX 01 10:22:39
  TRACK 10 AUDIO
    INDEX 01 11:23:25
  TRACK 11 AUDIO
    INDEX 01 12:53:04
  TRACK 12 AUDIO
    INDEX 01 15:12:06
  TRACK 13 AUDIO
    INDEX 01 16:26:26
  TRACK 14 AUDIO
    INDEX 01 17:36:24
  TRACK 15 AUDIO
    INDEX 01 18:48:08
  TRACK 16 AUDIO
    INDEX 01 20:01:20
  TRACK 17 AUDIO
    INDEX 01 21:49:38
  TRACK 18 AUDIO
    INDEX 01 22:50:56
  TRACK 19 AUDIO
    INDEX 01 24:12:23
  TRACK 20 AUDIO
    INDEX 01 25:30:72
  TRACK 21 AUDIO
    INDEX 01 27:03:07
  TRACK 22 AUDIO
    INDEX 01 29:21:50
  TRACK 23 AUDIO
    INDEX 01 30:48:56
  TRACK 24 AUDIO
    INDEX 01 32:17:60
  TRACK 25 AUDIO
    INDEX 01 33:24:50
  TRACK 26 AUDIO
    INDEX 01 33:55:28
  TRACK 27 AUDIO
    INDEX 01 34:57:07
  TRACK 28 AUDIO
    INDEX 01 36:25:63
  TRACK 29 AUDIO
    INDEX 01 37:27:00
  TRACK 30 AUDIO
    INDEX 01 39:06:60
  TRACK 31 AUDIO
    INDEX 01 40:24:62
  TRACK 32 AUDIO
    INDEX 01 41:23:42
  TRACK 33 AUDIO
    INDEX 01 42:26:63
  TRACK 34 AUDIO
    INDEX 01 43:05:46
  TRACK 35 AUDIO
    INDEX 01 44:33:00
  TRACK 36 AUDIO
    INDEX 01 45:39:00
  TRACK 37 AUDIO
    INDEX 01 47:55:22
  TRACK 38 AUDIO
    INDEX 01 48:56:63
  TRACK 39 AUDIO
    INDEX 01 49:40:71
  TRACK 40 AUDIO
    INDEX 01 51:09:00
  TRACK 41 AUDIO
    INDEX 01 52:15:47
  TRACK 42 AUDIO
    INDEX 01 54:53:71
  TRACK 43 AUDIO
    INDEX 01 56:41:15
  TRACK 44 AUDIO
    INDEX 01 57:58:48
  TRACK 45 AUDIO
    INDEX 01 58:58:07
  TRACK 46 AUDIO
    INDEX 01 59:32:48
  TRACK 47 AUDIO
    INDEX 01 61:17:09
  TRACK 48 AUDIO
    INDEX 01 63:30:61
  TRACK 49 AUDIO
    INDEX 01 64:30:03
  TRACK 50 AUDIO
    INDEX 01 66:07:19
  TRACK 51 AUDIO
    INDEX 01 66:44:25
  TRACK 52 AUDIO
    INDEX 01 68:15:04
  TRACK 53 AUDIO
    INDEX 01 69:15:03
  TRACK 54 AUDIO
    INDEX 01 70:12:31
  TRACK 55 AUDIO
    INDEX 01 71:12:00
  TRACK 56 AUDIO
    INDEX 01 71:39:65
  TRACK 57 AUDIO
    INDEX 01 73:33:50
  TRACK 58 AUDIO
    INDEX 01 74:18:18
Wertung: (3)  
Hinzugefügt: 14 March 2020
RSS Feed
RSS Feed
Sprache
Deutsch Englisch Französisch
Mixsuche
Suchbegriff
Genauer Wortlaut
Alle Worte (UND)
Ein Wort (ODER)
Statistik
12874 Mixe eingetragen
12598 Tracklisten
Newsletter
E-Mail
Anmelden
Abmelden
SPONSOREN