Mixkatalog
 Einloggen
Login
Passwort

Return To The Classics 5 Hits: 323  

Return To The Classics 5


Kurzbeschreibung:
Theo Kamann präsentiert den Return To The Classics Volume 5.
 
Crew/DJ: Theo Kamann Reihe: Return To Classics
Stil: Pop Erscheinungsjahr: 2019
Anzahl Tonträger: 1 Spielzeit: 78:13
Trackliste:
Cue-Informationen:

FILE "filename.mp3" MP3
  TRACK 01 AUDIO
    INDEX 01 00:00:00
  TRACK 02 AUDIO
    INDEX 01 00:28:10
  TRACK 03 AUDIO
    INDEX 01 01:16:10
  TRACK 04 AUDIO
    INDEX 01 01:52:00
  TRACK 05 AUDIO
    INDEX 01 02:37:14
  TRACK 06 AUDIO
    INDEX 01 04:06:60
  TRACK 07 AUDIO
    INDEX 01 04:49:70
  TRACK 08 AUDIO
    INDEX 01 05:43:10
  TRACK 09 AUDIO
    INDEX 01 06:44:70
  TRACK 10 AUDIO
    INDEX 01 07:05:40
  TRACK 11 AUDIO
    INDEX 01 08:16:30
  TRACK 12 AUDIO
    INDEX 01 08:58:30
  TRACK 13 AUDIO
    INDEX 01 09:39:00
  TRACK 14 AUDIO
    INDEX 01 10:56:00
  TRACK 15 AUDIO
    INDEX 01 11:45:50
  TRACK 16 AUDIO
    INDEX 01 12:39:30
  TRACK 17 AUDIO
    INDEX 01 13:22:20
  TRACK 18 AUDIO
    INDEX 01 14:06:00
  TRACK 19 AUDIO
    INDEX 01 15:31:20
  TRACK 20 AUDIO
    INDEX 01 16:10:30
  TRACK 21 AUDIO
    INDEX 01 17:07:40
  TRACK 22 AUDIO
    INDEX 01 17:35:74
  TRACK 23 AUDIO
    INDEX 01 18:12:20
  TRACK 24 AUDIO
    INDEX 01 18:40:20
  TRACK 25 AUDIO
    INDEX 01 19:18:40
  TRACK 26 AUDIO
    INDEX 01 20:06:70
  TRACK 27 AUDIO
    INDEX 01 20:43:25
  TRACK 28 AUDIO
    INDEX 01 21:15:70
  TRACK 29 AUDIO
    INDEX 01 22:14:50
  TRACK 30 AUDIO
    INDEX 01 23:00:53
  TRACK 31 AUDIO
    INDEX 01 24:05:20
  TRACK 32 AUDIO
    INDEX 01 24:55:20
  TRACK 33 AUDIO
    INDEX 01 25:28:60
  TRACK 34 AUDIO
    INDEX 01 25:50:00
  TRACK 35 AUDIO
    INDEX 01 26:25:60
  TRACK 36 AUDIO
    INDEX 01 28:03:10
  TRACK 37 AUDIO
    INDEX 01 28:21:00
  TRACK 38 AUDIO
    INDEX 01 29:14:00
  TRACK 39 AUDIO
    INDEX 01 30:40:20
  TRACK 40 AUDIO
    INDEX 01 31:06:60
  TRACK 41 AUDIO
    INDEX 01 31:23:60
  TRACK 42 AUDIO
    INDEX 01 32:23:40
  TRACK 43 AUDIO
    INDEX 01 33:04:30
  TRACK 44 AUDIO
    INDEX 01 34:10:50
  TRACK 45 AUDIO
    INDEX 01 35:08:20
  TRACK 46 AUDIO
    INDEX 01 35:32:10
  TRACK 47 AUDIO
    INDEX 01 36:12:70
  TRACK 48 AUDIO
    INDEX 01 36:45:05
  TRACK 49 AUDIO
    INDEX 01 37:17:22
  TRACK 50 AUDIO
    INDEX 01 37:49:56
  TRACK 51 AUDIO
    INDEX 01 38:36:60
  TRACK 52 AUDIO
    INDEX 01 39:09:00
  TRACK 53 AUDIO
    INDEX 01 39:57:50
  TRACK 54 AUDIO
    INDEX 01 41:19:56
  TRACK 55 AUDIO
    INDEX 01 42:26:30
  TRACK 56 AUDIO
    INDEX 01 43:27:10
  TRACK 57 AUDIO
    INDEX 01 45:11:30
  TRACK 58 AUDIO
    INDEX 01 45:47:10
  TRACK 59 AUDIO
    INDEX 01 46:27:55
  TRACK 60 AUDIO
    INDEX 01 47:35:60
  TRACK 61 AUDIO
    INDEX 01 48:11:60
  TRACK 62 AUDIO
    INDEX 01 48:39:50 
  TRACK 63 AUDIO
    INDEX 01 49:27:50
  TRACK 64 AUDIO
    INDEX 01 50:23:59
  TRACK 65 AUDIO
    INDEX 01 51:19:50
  TRACK 66 AUDIO
    INDEX 01 52:17:20
  TRACK 67 AUDIO
    INDEX 01 53:04:20
  TRACK 68 AUDIO
    INDEX 01 53:57:50
  TRACK 69 AUDIO
    INDEX 01 54:11:00
  TRACK 70 AUDIO
    INDEX 01 54:44:74
  TRACK 71 AUDIO
    INDEX 01 56:02:00
  TRACK 72 AUDIO
    INDEX 01 56:18:70
  TRACK 73 AUDIO
    INDEX 01 56:49:00
  TRACK 74 AUDIO
    INDEX 01 58:54:60
  TRACK 75 AUDIO
    INDEX 01 59:57:20
  TRACK 76 AUDIO
    INDEX 01 62:02:10
  TRACK 77 AUDIO
    INDEX 01 62:55:00
  TRACK 78 AUDIO
    INDEX 01 63:20:12
  TRACK 79 AUDIO
    INDEX 01 64:06:10
  TRACK 80 AUDIO
    INDEX 01 64:36:70
  TRACK 81 AUDIO
    INDEX 01 65:38:70
  TRACK 82 AUDIO
    INDEX 01 66:22:30
  TRACK 83 AUDIO
    INDEX 01 66:39:20
  TRACK 84 AUDIO
    INDEX 01 66:55:40
  TRACK 85 AUDIO
    INDEX 01 67:27:00
  TRACK 86 AUDIO
    INDEX 01 68:08:35
  TRACK 87 AUDIO
    INDEX 01 68:43:40
  TRACK 88 AUDIO
    INDEX 01 69:29:30
  TRACK 89 AUDIO
    INDEX 01 69:59:60
  TRACK 90 AUDIO
    INDEX 01 70:29:00
  TRACK 91 AUDIO
    INDEX 01 71:20:05
  TRACK 92 AUDIO
    INDEX 01 71:49:60
  TRACK 93 AUDIO
    INDEX 01 72:18:74
  TRACK 94 AUDIO
    INDEX 01 73:02:40
  TRACK 95 AUDIO
    INDEX 01 74:02:30
  TRACK 96 AUDIO
    INDEX 01 74:31:50
  TRACK 97 AUDIO
    INDEX 01 74:51:00
  TRACK 98 AUDIO
    INDEX 01 76:18:40
  TRACK 99 AUDIO
    INDEX 01 77:40:40
Wertung: (15)  
Hinzugefügt: 3 November 2019
RSS Feed
RSS Feed
Sprache
Deutsch Englisch Französisch
Mixsuche
Suchbegriff
Genauer Wortlaut
Alle Worte (UND)
Ein Wort (ODER)
Statistik
12391 Mixe eingetragen
12111 Tracklisten
Newsletter
E-Mail
Anmelden
Abmelden
SPONSOREN