Mixkatalog
 Einloggen
Login
Passwort

Volume 03 Hits: 10  

Volume 03


Kurzbeschreibung:
Dreamteam präsentiert Dreamteam Volume 3 - Make Not Trix, Take That Mix, gemixt von Pit & Joe.
 
Crew/DJ: Dreamteam Reihe: Story
Stil: Dance Erscheinungsjahr: 1995
CDs: 1 Spielzeit: 71:28
Trackliste:
Cue-Informationen:

FILE "filename.mp3" MP3
  TRACK 01 AUDIO
    INDEX 00 00:00:00
  TRACK 02 AUDIO
    INDEX 01 07:53:27
  TRACK 03 AUDIO
    INDEX 01 13:53:00
  TRACK 04 AUDIO
    INDEX 01 23:41:27
  TRACK 05 AUDIO
    INDEX 01 27:30:65
  TRACK 06 AUDIO
    INDEX 01 32:56:57
  TRACK 07 AUDIO
    INDEX 01 42:19:32
  TRACK 08 AUDIO
    INDEX 01 46:44:20
  TRACK 09 AUDIO
    INDEX 01 51:49:35
Wertung: ()  
Hinzugefügt: 18 September 2009
Bewerte als Erster diesen Mix:
RSS Feed
RSS Feed
Sprache
Deutsch Englisch Französisch
Mixsuche
Suchbegriff
Genauer Wortlaut
Alle Worte (UND)
Ein Wort (ODER)
Statistik
34842 Mixe eingetragen
32954 Tracklisten
Newsletter
E-Mail
Anmelden
Abmelden
SPONSOREN