Mixkatalog
 Einloggen
Login
Passwort

Black Mix Special No. 06 Hits: 24  

Black Mix Special No. 06


Kurzbeschreibung:
Dreamteam präsentiert Black Mix Special Nummer 6, gemixt von Pit & Joe.
 
Crew/DJ: Dreamteam Reihe: Black Special
Stil: RnB Erscheinungsjahr: 1996
CDs: 1 Spielzeit: 76:20
Trackliste:
Cue-Informationen:

FILE "filename.mp3" MP3
  TRACK 01 AUDIO
    INDEX 01 00:00:00
  TRACK 02 AUDIO
    INDEX 01 00:41:62
  TRACK 03 AUDIO
    INDEX 01 03:37:57
  TRACK 04 AUDIO
    INDEX 01 05:09:62
  TRACK 05 AUDIO
    INDEX 01 07:23:67
  TRACK 06 AUDIO
    INDEX 01 09:11:05
  TRACK 07 AUDIO
    INDEX 01 10:31:15
  TRACK 08 AUDIO
    INDEX 01 11:53:52
  TRACK 09 AUDIO
    INDEX 01 13:19:22
  TRACK 10 AUDIO
    INDEX 01 14:44:37
  TRACK 11 AUDIO
    INDEX 01 17:03:65
  TRACK 12 AUDIO
    INDEX 01 19:00:55
  TRACK 13 AUDIO
    INDEX 01 21:26:10
  TRACK 14 AUDIO
    INDEX 01 23:55:45
  TRACK 15 AUDIO
    INDEX 01 25:14:35
  TRACK 16 AUDIO
    INDEX 01 27:51:70
  TRACK 17 AUDIO
    INDEX 01 29:48:17
  TRACK 18 AUDIO
    INDEX 01 31:15:20
  TRACK 19 AUDIO
    INDEX 01 33:18:65
  TRACK 20 AUDIO
    INDEX 01 35:15:55
  TRACK 21 AUDIO
    INDEX 01 36:10:32
  TRACK 22 AUDIO
    INDEX 01 37:46:70
  TRACK 23 AUDIO
    INDEX 01 39:49:15
  TRACK 24 AUDIO
    INDEX 01 41:15:57
  TRACK 25 AUDIO
    INDEX 01 43:19:72
  TRACK 26 AUDIO
    INDEX 01 45:47:00
  TRACK 27 AUDIO
    INDEX 01 46:54:27
  TRACK 28 AUDIO
    INDEX 01 61:58:70
  TRACK 29 AUDIO
    INDEX 01 70:13:55
Wertung: (2)  
Hinzugefügt: 18 September 2009
RSS Feed
RSS Feed
Sprache
Deutsch Englisch Französisch
Mixsuche
Suchbegriff
Genauer Wortlaut
Alle Worte (UND)
Ein Wort (ODER)
Statistik
34691 Mixe eingetragen
32812 Tracklisten
Newsletter
E-Mail
Anmelden
Abmelden
SPONSOREN