Mixkatalog
 Einloggen
Login
Passwort

Love Fever 1 Hits: 761  

Love Fever 1


Kurzbeschreibung:
Dreamteam präsentiert Love Fever Volume 1 gemixt von Pit & Joe.
 
Crew/DJ: Dreamteam Reihe: Love Fever
Stil: Slow Erscheinungsjahr: 1999
CDs: 1 Spielzeit: 73:35
Trackliste:
Cue-Informationen:

FILE "filename.mp3" MP3
  TRACK 01 AUDIO
    INDEX 01 00:00:00
  TRACK 02 AUDIO
    INDEX 01 00:23:70
  TRACK 03 AUDIO
    INDEX 01 02:02:35
  TRACK 04 AUDIO
    INDEX 01 03:37:02
  TRACK 05 AUDIO
    INDEX 01 05:17:42
  TRACK 06 AUDIO
    INDEX 01 06:35:37
  TRACK 07 AUDIO
    INDEX 01 08:40:72
  TRACK 08 AUDIO
    INDEX 01 10:42:52
  TRACK 09 AUDIO
    INDEX 01 12:55:37
  TRACK 10 AUDIO
    INDEX 01 14:45:12
  TRACK 11 AUDIO
    INDEX 01 16:27:60
  TRACK 12 AUDIO
    INDEX 01 17:53:00
  TRACK 13 AUDIO
    INDEX 01 20:30:35
  TRACK 14 AUDIO
    INDEX 01 21:55:12
  TRACK 15 AUDIO
    INDEX 01 23:09:00
  TRACK 16 AUDIO
    INDEX 01 24:41:17
  TRACK 17 AUDIO
    INDEX 01 26:03:35
  TRACK 18 AUDIO
    INDEX 01 27:13:72
  TRACK 19 AUDIO
    INDEX 01 29:05:00
  TRACK 20 AUDIO
    INDEX 01 31:03:47
  TRACK 21 AUDIO
    INDEX 01 32:55:67
  TRACK 22 AUDIO
    INDEX 01 34:36:70
  TRACK 23 AUDIO
    INDEX 01 35:57:52
  TRACK 24 AUDIO
    INDEX 01 37:53:57
  TRACK 25 AUDIO
    INDEX 01 39:04:00
  TRACK 26 AUDIO
    INDEX 01 41:16:07
  TRACK 27 AUDIO
    INDEX 01 43:28:55
  TRACK 28 AUDIO
    INDEX 01 45:15:22
  TRACK 29 AUDIO
    INDEX 01 47:28:15
  TRACK 30 AUDIO
    INDEX 01 49:38:07
  TRACK 31 AUDIO
    INDEX 01 51:07:27
  TRACK 32 AUDIO
    INDEX 01 52:35:22
  TRACK 33 AUDIO
    INDEX 01 53:53:40
  TRACK 34 AUDIO
    INDEX 01 55:45:25
  TRACK 35 AUDIO
    INDEX 01 57:02:20
  TRACK 36 AUDIO
    INDEX 01 59:06:20
  TRACK 37 AUDIO
    INDEX 01 60:59:45
  TRACK 38 AUDIO
    INDEX 01 62:28:30
  TRACK 39 AUDIO
    INDEX 01 63:06:70
  TRACK 40 AUDIO
    INDEX 01 64:18:00
  TRACK 41 AUDIO
    INDEX 01 66:52:05
  TRACK 42 AUDIO
    INDEX 01 68:49:50
  TRACK 43 AUDIO
    INDEX 01 70:22:50
  TRACK 44 AUDIO
    INDEX 01 71:52:30
  TRACK 45 AUDIO
    INDEX 01 74:01:27
  TRACK 46 AUDIO
    INDEX 01 75:06:65
  TRACK 47 AUDIO
    INDEX 01 76:06:72
Wertung: (2)  
Hinzugefügt: 17 September 2009
RSS Feed
RSS Feed
Sprache
Deutsch Englisch Französisch
Mixsuche
Suchbegriff
Genauer Wortlaut
Alle Worte (UND)
Ein Wort (ODER)
Statistik
30210 Mixe eingetragen
28551 Tracklisten
Newsletter
E-Mail
Anmelden
Abmelden
SPONSOREN