Mixkatalog
 Einloggen
Login
Passwort

Grandmix The Disco Edition 1 Hits: 115  

Grandmix The Disco Edition 1


Kurzbeschreibung:
Ben Liebrand präsentiert den Grandmix The Disco Edition.
 
Crew/DJ: Ben Liebrand Reihe: Grandmix
Stil: Pop Erscheinungsjahr: 2002
CDs: 3 Spielzeit: 171:47
Trackliste:
Cue-Informationen:

FILE "filename CD 1.mp3" MP3
  TRACK 01 AUDIO
    INDEX 01 00:00:00
  TRACK 02 AUDIO
    INDEX 01 01:42:14
  TRACK 03 AUDIO
    INDEX 01 03:15:18
  TRACK 04 AUDIO
    INDEX 01 05:22:03
  TRACK 05 AUDIO
    INDEX 01 07:03:33
  TRACK 06 AUDIO
    INDEX 01 08:41:19
  TRACK 07 AUDIO
    INDEX 01 10:22:60
  TRACK 08 AUDIO
    INDEX 01 12:05:04
  TRACK 09 AUDIO
    INDEX 01 13:49:22
  TRACK 10 AUDIO
    INDEX 01 15:47:28
  TRACK 11 AUDIO
    INDEX 01 17:26:10
  TRACK 12 AUDIO
    INDEX 01 19:07:22
  TRACK 13 AUDIO
    INDEX 01 21:41:00
  TRACK 14 AUDIO
    INDEX 01 23:21:65
  TRACK 15 AUDIO
    INDEX 01 25:05:58
  TRACK 16 AUDIO
    INDEX 01 26:46:13
  TRACK 17 AUDIO
    INDEX 01 28:28:29
  TRACK 18 AUDIO
    INDEX 01 30:04:15
  TRACK 19 AUDIO
    INDEX 01 31:46:56
  TRACK 20 AUDIO
    INDEX 01 33:30:42
  TRACK 21 AUDIO
    INDEX 01 35:12:57
  TRACK 22 AUDIO
    INDEX 01 36:49:40
  TRACK 23 AUDIO
    INDEX 01 38:31:54
  TRACK 24 AUDIO
    INDEX 01 40:13:65
  TRACK 25 AUDIO
    INDEX 01 41:57:73
  TRACK 26 AUDIO
    INDEX 01 43:35:18
  TRACK 27 AUDIO
    INDEX 01 45:17:12
  TRACK 28 AUDIO
    INDEX 01 46:57:60
  TRACK 29 AUDIO
    INDEX 01 48:38:37
  TRACK 30 AUDIO
    INDEX 01 50:20:72
  TRACK 31 AUDIO
    INDEX 01 52:04:72
  TRACK 32 AUDIO
    INDEX 01 54:13:68
  TRACK 33 AUDIO
    INDEX 01 55:43:47
  TRACK 34 AUDIO
    INDEX 01 57:03:47
  TRACK 35 AUDIO
    INDEX 01 58:40:74

FILE "filename CD 2.mp3" MP3
  TRACK 01 AUDIO
    INDEX 01 00:00:00
  TRACK 02 AUDIO
    INDEX 01 01:46:17
  TRACK 03 AUDIO
    INDEX 01 03:25:11
  TRACK 04 AUDIO
    INDEX 01 05:02:02
  TRACK 05 AUDIO
    INDEX 01 07:08:47
  TRACK 06 AUDIO
    INDEX 01 08:51:11
  TRACK 07 AUDIO
    INDEX 01 10:32:62
  TRACK 08 AUDIO
    INDEX 01 12:10:69
  TRACK 09 AUDIO
    INDEX 01 13:54:21
  TRACK 10 AUDIO
    INDEX 01 15:36:09
  TRACK 11 AUDIO
    INDEX 01 17:57:21
  TRACK 12 AUDIO
    INDEX 01 19:57:10
  TRACK 13 AUDIO
    INDEX 01 21:40:73
  TRACK 14 AUDIO
    INDEX 01 23:23:37
  TRACK 15 AUDIO
    INDEX 01 25:04:46
  TRACK 16 AUDIO
    INDEX 01 26:47:20
  TRACK 17 AUDIO
    INDEX 01 28:20:28
  TRACK 18 AUDIO
    INDEX 01 30:04:45
  TRACK 19 AUDIO
    INDEX 01 31:40:35
  TRACK 20 AUDIO
    INDEX 01 33:22:32
  TRACK 21 AUDIO
    INDEX 01 34:57:33
  TRACK 22 AUDIO
    INDEX 01 36:40:27
  TRACK 23 AUDIO
    INDEX 01 38:24:22
  TRACK 24 AUDIO
    INDEX 01 40:08:05
  TRACK 25 AUDIO
    INDEX 01 41:47:36
  TRACK 26 AUDIO
    INDEX 01 43:30:61
  TRACK 27 AUDIO
    INDEX 01 45:12:10
  TRACK 28 AUDIO
    INDEX 01 46:46:36
  TRACK 29 AUDIO
    INDEX 01 48:29:01
  TRACK 30 AUDIO
    INDEX 01 50:03:29
  TRACK 31 AUDIO
    INDEX 01 51:38:41
  TRACK 32 AUDIO
    INDEX 01 53:13:58
  TRACK 33 AUDIO
    INDEX 01 54:56:62
  TRACK 34 AUDIO
    INDEX 01 56:38:36

FILE "filename CD 3.mp3" MP3
  TRACK 01 AUDIO
    INDEX 01 00:00:00
  TRACK 02 AUDIO
    INDEX 01 01:36:15
  TRACK 03 AUDIO
    INDEX 01 03:16:45
  TRACK 04 AUDIO
    INDEX 01 05:22:26
  TRACK 05 AUDIO
    INDEX 01 07:03:44
  TRACK 06 AUDIO
    INDEX 01 09:53:39
  TRACK 07 AUDIO
    INDEX 01 11:33:51
  TRACK 08 AUDIO
    INDEX 01 13:16:52
  TRACK 09 AUDIO
    INDEX 01 14:51:16
  TRACK 10 AUDIO
    INDEX 01 16:30:46
  TRACK 11 AUDIO
    INDEX 01 17:54:74
  TRACK 12 AUDIO
    INDEX 01 19:58:59
  TRACK 13 AUDIO
    INDEX 01 21:58:65
  TRACK 14 AUDIO
    INDEX 01 23:37:54
  TRACK 15 AUDIO
    INDEX 01 25:28:74
  TRACK 16 AUDIO
    INDEX 01 27:09:45
  TRACK 17 AUDIO
    INDEX 01 28:53:60
  TRACK 18 AUDIO
    INDEX 01 30:38:13
  TRACK 19 AUDIO
    INDEX 01 32:16:67
  TRACK 20 AUDIO
    INDEX 01 33:57:17
  TRACK 21 AUDIO
    INDEX 01 35:41:16
  TRACK 22 AUDIO
    INDEX 01 38:01:28
  TRACK 23 AUDIO
    INDEX 01 40:33:29
  TRACK 24 AUDIO
    INDEX 01 42:14:58
  TRACK 25 AUDIO
    INDEX 01 43:53:29
  TRACK 26 AUDIO
    INDEX 01 46:30:06
  TRACK 27 AUDIO
    INDEX 01 48:39:33
  TRACK 28 AUDIO
    INDEX 01 50:20:24
  TRACK 29 AUDIO
    INDEX 01 51:54:00
Wertung: (1)  
Hinzugefügt: 12 April 2011
RSS Feed
RSS Feed
Sprache
Deutsch Englisch Französisch
Mixsuche
Suchbegriff
Genauer Wortlaut
Alle Worte (UND)
Ein Wort (ODER)
Statistik
34691 Mixe eingetragen
32812 Tracklisten
Newsletter
E-Mail
Anmelden
Abmelden
SPONSOREN