Mixkatalog
 Einloggen
Login
Passwort

Grandmix The 90s Edition 2 Hits: 128  

Grandmix The 90s Edition 2


Kurzbeschreibung:
Ben Liebrand präsentiert den Grandmix The 90s Edition Volume 2.
 
Crew/DJ: Ben Liebrand Reihe: Grandmix
Stil: Dance Erscheinungsjahr: 2005
CDs: 3 Spielzeit: 174:36
Trackliste:
Cue-Informationen:

FILE "filename CD 1.mp3" MP3
  TRACK 01 AUDIO
    INDEX 01 00:00:00
  TRACK 02 AUDIO
    INDEX 01 01:38:00
  TRACK 03 AUDIO
    INDEX 01 02:49:71
  TRACK 04 AUDIO
    INDEX 01 04:12:70
  TRACK 05 AUDIO
    INDEX 01 06:38:44
  TRACK 06 AUDIO
    INDEX 01 08:21:33
  TRACK 07 AUDIO
    INDEX 01 10:05:72
  TRACK 08 AUDIO
    INDEX 01 11:43:56
  TRACK 09 AUDIO
    INDEX 01 13:16:40
  TRACK 10 AUDIO
    INDEX 01 14:56:31
  TRACK 11 AUDIO
    INDEX 01 16:43:17
  TRACK 12 AUDIO
    INDEX 01 18:02:40
  TRACK 13 AUDIO
    INDEX 01 19:43:60
  TRACK 14 AUDIO
    INDEX 01 21:42:63
  TRACK 15 AUDIO
    INDEX 01 23:11:74
  TRACK 16 AUDIO
    INDEX 01 24:53:38
  TRACK 17 AUDIO
    INDEX 01 26:32:10
  TRACK 18 AUDIO
    INDEX 01 28:17:72
  TRACK 19 AUDIO
    INDEX 01 29:59:47
  TRACK 20 AUDIO
    INDEX 01 31:44:61
  TRACK 21 AUDIO
    INDEX 01 33:26:18
  TRACK 22 AUDIO
    INDEX 01 35:07:19
  TRACK 23 AUDIO
    INDEX 01 36:57:09
  TRACK 24 AUDIO
    INDEX 01 38:38:32
  TRACK 25 AUDIO
    INDEX 01 40:19:35
  TRACK 26 AUDIO
    INDEX 01 42:00:33
  TRACK 27 AUDIO
    INDEX 01 43:41:43
  TRACK 28 AUDIO
    INDEX 01 45:18:63
  TRACK 29 AUDIO
    INDEX 01 47:47:00
  TRACK 30 AUDIO
    INDEX 01 49:30:69
  TRACK 31 AUDIO
    INDEX 01 51:11:24
  TRACK 32 AUDIO
    INDEX 01 52:59:24
  TRACK 33 AUDIO
    INDEX 01 54:39:29
  TRACK 34 AUDIO
    INDEX 01 56:18:63
  TRACK 35 AUDIO
    INDEX 01 57:58:00

FILE "filename CD 2.mp3" MP3
  TRACK 01 AUDIO
    INDEX 01 00:00:00
  TRACK 02 AUDIO
    INDEX 01 01:44:61
  TRACK 03 AUDIO
    INDEX 01 03:32:22
  TRACK 04 AUDIO
    INDEX 01 05:15:19
  TRACK 05 AUDIO
    INDEX 01 06:58:16
  TRACK 06 AUDIO
    INDEX 01 08:37:23
  TRACK 07 AUDIO
    INDEX 01 10:45:48
  TRACK 08 AUDIO
    INDEX 01 12:24:20
  TRACK 09 AUDIO
    INDEX 01 15:47:18
  TRACK 10 AUDIO
    INDEX 01 17:28:37
  TRACK 11 AUDIO
    INDEX 01 19:07:11
  TRACK 12 AUDIO
    INDEX 01 20:49:12
  TRACK 13 AUDIO
    INDEX 01 22:30:36
  TRACK 14 AUDIO
    INDEX 01 26:00:24
  TRACK 15 AUDIO
    INDEX 01 27:39:73
  TRACK 16 AUDIO
    INDEX 01 29:19:47
  TRACK 17 AUDIO
    INDEX 01 31:03:18
  TRACK 18 AUDIO
    INDEX 01 32:46:38
  TRACK 19 AUDIO
    INDEX 01 34:29:07
  TRACK 20 AUDIO
    INDEX 01 36:11:51
  TRACK 21 AUDIO
    INDEX 01 37:55:54
  TRACK 22 AUDIO
    INDEX 01 40:24:37
  TRACK 23 AUDIO
    INDEX 01 42:07:65
  TRACK 24 AUDIO
    INDEX 01 43:50:13
  TRACK 25 AUDIO
    INDEX 01 45:36:55
  TRACK 26 AUDIO
    INDEX 01 47:19:46
  TRACK 27 AUDIO
    INDEX 01 49:22:32
  TRACK 28 AUDIO
    INDEX 01 51:03:44
  TRACK 29 AUDIO
    INDEX 01 52:44:57
  TRACK 30 AUDIO
    INDEX 01 54:25:69
  TRACK 31 AUDIO
    INDEX 01 56:05:56
  TRACK 32 AUDIO
    INDEX 01 57:47:00

FILE "filename CD 3.mp3" MP3
  TRACK 01 AUDIO
    INDEX 01 00:00:00
  TRACK 02 AUDIO
    INDEX 01 01:20:59
  TRACK 03 AUDIO
    INDEX 01 03:19:48
  TRACK 04 AUDIO
    INDEX 01 05:04:23
  TRACK 05 AUDIO
    INDEX 01 06:44:15
  TRACK 06 AUDIO
    INDEX 01 08:26:08
  TRACK 07 AUDIO
    INDEX 01 10:06:41
  TRACK 08 AUDIO
    INDEX 01 11:50:09
  TRACK 09 AUDIO
    INDEX 01 13:32:49
  TRACK 10 AUDIO
    INDEX 01 15:17:27
  TRACK 11 AUDIO
    INDEX 01 17:02:30
  TRACK 12 AUDIO
    INDEX 01 18:47:06
  TRACK 13 AUDIO
    INDEX 01 20:25:01
  TRACK 14 AUDIO
    INDEX 01 22:09:10
  TRACK 15 AUDIO
    INDEX 01 23:52:65
  TRACK 16 AUDIO
    INDEX 01 25:35:37
  TRACK 17 AUDIO
    INDEX 01 27:18:03
  TRACK 18 AUDIO
    INDEX 01 28:58:03
  TRACK 19 AUDIO
    INDEX 01 30:39:22
  TRACK 20 AUDIO
    INDEX 01 32:58:70
  TRACK 21 AUDIO
    INDEX 01 34:36:22
  TRACK 22 AUDIO
    INDEX 01 36:19:73
  TRACK 23 AUDIO
    INDEX 01 38:12:15
  TRACK 24 AUDIO
    INDEX 01 40:00:23
  TRACK 25 AUDIO
    INDEX 01 41:46:53
  TRACK 26 AUDIO
    INDEX 01 43:26:63
  TRACK 27 AUDIO
    INDEX 01 45:10:70
  TRACK 28 AUDIO
    INDEX 01 47:28:68
  TRACK 29 AUDIO
    INDEX 01 49:07:17
  TRACK 30 AUDIO
    INDEX 01 51:24:28
  TRACK 31 AUDIO
    INDEX 01 52:58:00
Wertung: (1)  
Hinzugefügt: 12 April 2011
RSS Feed
RSS Feed
Sprache
Deutsch Englisch Französisch
Mixsuche
Suchbegriff
Genauer Wortlaut
Alle Worte (UND)
Ein Wort (ODER)
Statistik
34691 Mixe eingetragen
32812 Tracklisten
Newsletter
E-Mail
Anmelden
Abmelden
SPONSOREN