Mixkatalog
 Einloggen
Login
Passwort

Discofox Top 100 1 Hits: 1  

Discofox Top 100 1


Kurzbeschreibung:
SWG präsentiert Discofox Top 100. 100 Partyhits In Mega Mix, gemixt von DJ Deep.
 
Crew/DJ: SWG Reihe: Top 100
Stil: Fox Erscheinungsjahr: 2008
Anzahl Tonträger: 2 Spielzeit: 155:37
Trackliste:
Cue-Informationen:

FILE "filename CD 1.mp3" MP3
  TRACK 01 AUDIO
    INDEX 01 00:00:00
  TRACK 02 AUDIO
    INDEX 01 01:10:20
  TRACK 03 AUDIO
    INDEX 01 02:28:44
  TRACK 04 AUDIO
    INDEX 01 03:50:18
  TRACK 05 AUDIO
    INDEX 01 05:01:51
  TRACK 06 AUDIO
    INDEX 01 06:40:48
  TRACK 07 AUDIO
    INDEX 01 08:02:69
  TRACK 08 AUDIO
    INDEX 01 09:50:53
  TRACK 09 AUDIO
    INDEX 01 10:48:04
  TRACK 10 AUDIO
    INDEX 01 12:29:24
  TRACK 11 AUDIO
    INDEX 01 13:36:54
  TRACK 12 AUDIO
    INDEX 01 15:04:47
  TRACK 13 AUDIO
    INDEX 01 16:40:43
  TRACK 14 AUDIO
    INDEX 01 18:24:57
  TRACK 15 AUDIO
    INDEX 01 19:51:27
  TRACK 16 AUDIO
    INDEX 01 21:04:48
  TRACK 17 AUDIO
    INDEX 01 22:12:72
  TRACK 18 AUDIO
    INDEX 01 23:54:55
  TRACK 19 AUDIO
    INDEX 01 25:37:29
  TRACK 20 AUDIO
    INDEX 01 27:29:05
  TRACK 21 AUDIO
    INDEX 01 28:31:61
  TRACK 22 AUDIO
    INDEX 01 29:45:46
  TRACK 23 AUDIO
    INDEX 01 31:58:01
  TRACK 24 AUDIO
    INDEX 01 33:33:74
  TRACK 25 AUDIO
    INDEX 01 35:17:26
  TRACK 26 AUDIO
    INDEX 01 37:09:70
  TRACK 27 AUDIO
    INDEX 01 38:23:64
  TRACK 28 AUDIO
    INDEX 01 40:07:51
  TRACK 29 AUDIO
    INDEX 01 41:56:29
  TRACK 30 AUDIO
    INDEX 01 43:37:45
  TRACK 31 AUDIO
    INDEX 01 45:07:41
  TRACK 32 AUDIO
    INDEX 01 46:48:58
  TRACK 33 AUDIO
    INDEX 01 48:48:55
  TRACK 34 AUDIO
    INDEX 01 49:48:53
  TRACK 35 AUDIO
    INDEX 01 51:38:20
  TRACK 36 AUDIO
    INDEX 01 52:38:54
  TRACK 37 AUDIO
    INDEX 01 54:32:04
  TRACK 38 AUDIO
    INDEX 01 55:25:01
  TRACK 39 AUDIO
    INDEX 01 57:14:72
  TRACK 40 AUDIO
    INDEX 01 58:44:69
  TRACK 41 AUDIO
    INDEX 01 61:01:66
  TRACK 42 AUDIO
    INDEX 01 62:18:13
  TRACK 43 AUDIO
    INDEX 01 63:19:08
  TRACK 44 AUDIO
    INDEX 01 67:01:34
  TRACK 45 AUDIO
    INDEX 01 68:02:01
  TRACK 46 AUDIO
    INDEX 01 69:21:73
  TRACK 47 AUDIO
    INDEX 01 71:09:60
  TRACK 48 AUDIO
    INDEX 01 72:41:41
  TRACK 49 AUDIO
    INDEX 01 74:37:11
  TRACK 50 AUDIO
    INDEX 01 76:49:39

FILE "filename CD 2.mp3" MP3
  TRACK 51 AUDIO
    INDEX 01 00:00:00
  TRACK 52 AUDIO
    INDEX 01 01:44:70
  TRACK 53 AUDIO
    INDEX 01 03:01:07
  TRACK 54 AUDIO
    INDEX 01 04:22:61
  TRACK 55 AUDIO
    INDEX 01 05:54:00
  TRACK 56 AUDIO
    INDEX 01 06:53:04
  TRACK 57 AUDIO
    INDEX 01 08:29:48
  TRACK 58 AUDIO
    INDEX 01 10:07:51
  TRACK 59 AUDIO
    INDEX 01 12:04:68
  TRACK 60 AUDIO
    INDEX 01 14:03:14
  TRACK 61 AUDIO
    INDEX 01 15:31:68
  TRACK 62 AUDIO
    INDEX 01 16:33:74
  TRACK 63 AUDIO
    INDEX 01 18:14:30
  TRACK 64 AUDIO
    INDEX 01 19:24:41
  TRACK 65 AUDIO
    INDEX 01 20:45:31
  TRACK 66 AUDIO
    INDEX 01 22:00:53
  TRACK 67 AUDIO
    INDEX 01 23:13:19
  TRACK 68 AUDIO
    INDEX 01 24:45:23
  TRACK 69 AUDIO
    INDEX 01 26:18:10
  TRACK 70 AUDIO
    INDEX 01 28:13:48
  TRACK 71 AUDIO
    INDEX 01 29:25:33
  TRACK 72 AUDIO
    INDEX 01 30:54:29
  TRACK 73 AUDIO
    INDEX 01 32:05:46
  TRACK 74 AUDIO
    INDEX 01 33:28:60
  TRACK 75 AUDIO
    INDEX 01 34:53:41
  TRACK 76 AUDIO
    INDEX 01 36:23:38
  TRACK 77 AUDIO
    INDEX 01 38:05:03
  TRACK 78 AUDIO
    INDEX 01 39:28:72
  TRACK 79 AUDIO
    INDEX 01 41:05:16
  TRACK 80 AUDIO
    INDEX 01 42:25:41
  TRACK 81 AUDIO
    INDEX 01 44:19:39
  TRACK 82 AUDIO
    INDEX 01 46:16:00
  TRACK 83 AUDIO
    INDEX 01 48:18:04
  TRACK 84 AUDIO
    INDEX 01 50:20:03
  TRACK 85 AUDIO
    INDEX 01 52:12:44
  TRACK 86 AUDIO
    INDEX 01 53:38:62
  TRACK 87 AUDIO
    INDEX 01 55:16:19
  TRACK 88 AUDIO
    INDEX 01 56:53:56
  TRACK 89 AUDIO
    INDEX 01 58:01:19
  TRACK 90 AUDIO
    INDEX 01 59:23:59
  TRACK 91 AUDIO
    INDEX 01 60:53:53
  TRACK 92 AUDIO
    INDEX 01 62:15:47
  TRACK 93 AUDIO
    INDEX 01 64:29:40
  TRACK 94 AUDIO
    INDEX 01 65:43:73
  TRACK 95 AUDIO
    INDEX 01 67:42:60
  TRACK 96 AUDIO
    INDEX 01 68:56:74
  TRACK 97 AUDIO
    INDEX 01 70:14:54
  TRACK 98 AUDIO
    INDEX 01 71:45:41
  TRACK 99 AUDIO
    INDEX 01 73:05:41
  TRACK 10 AUDIO
    INDEX 01 74:15:31
Wertung: ()  
Hinzugefügt: 23 March 2011
Bewerte als Erster diesen Mix:
RSS Feed
RSS Feed
Sprache
Deutsch Englisch Französisch
Mixsuche
Suchbegriff
Genauer Wortlaut
Alle Worte (UND)
Ein Wort (ODER)
Statistik
36721 Mixe eingetragen
34784 Tracklisten
Newsletter
E-Mail
Anmelden
Abmelden
SPONSOREN