Mixkatalog
 Einloggen
Login
Passwort

Party Mega Mix 2 Hits: 200  

Party Mega Mix 2


Kurzbeschreibung:
SWG präsentiert Party Mega Mix Volume 2. 77 Titel im Megamix, gemixt von DJ Deep.
 
Crew/DJ: SWG Reihe: Party Megamix
Stil: Party Erscheinungsjahr: 2001
CDs: 2 Spielzeit: 136:54
Trackliste:
Cue-Informationen:

FILE "filename CD 1.mp3" MP3
  TRACK 01 AUDIO
    INDEX 01 00:00:00
  TRACK 02 AUDIO
    INDEX 01 01:12:54
  TRACK 03 AUDIO
    INDEX 01 02:19:34
  TRACK 04 AUDIO
    INDEX 01 03:45:64
  TRACK 05 AUDIO
    INDEX 01 05:34:24
  TRACK 06 AUDIO
    INDEX 01 07:09:20
  TRACK 07 AUDIO
    INDEX 01 08:50:23
  TRACK 08 AUDIO
    INDEX 01 10:19:62
  TRACK 09 AUDIO
    INDEX 01 12:15:14
  TRACK 10 AUDIO
    INDEX 01 14:22:25
  TRACK 11 AUDIO
    INDEX 01 16:02:46
  TRACK 12 AUDIO
    INDEX 01 17:57:17
  TRACK 13 AUDIO
    INDEX 01 20:16:46
  TRACK 14 AUDIO
    INDEX 01 21:42:49
  TRACK 15 AUDIO
    INDEX 01 25:02:12
  TRACK 16 AUDIO
    INDEX 01 27:55:43
  TRACK 17 AUDIO
    INDEX 01 29:55:43
  TRACK 18 AUDIO
    INDEX 01 31:42:49
  TRACK 19 AUDIO
    INDEX 01 33:00:21
  TRACK 20 AUDIO
    INDEX 01 35:33:21
  TRACK 21 AUDIO
    INDEX 01 37:32:31
  TRACK 22 AUDIO
    INDEX 01 40:25:45
  TRACK 23 AUDIO
    INDEX 01 42:18:18
  TRACK 24 AUDIO
    INDEX 01 43:33:42
  TRACK 25 AUDIO
    INDEX 01 45:58:27
  TRACK 26 AUDIO
    INDEX 01 48:17:53
  TRACK 27 AUDIO
    INDEX 01 50:08:67
  TRACK 28 AUDIO
    INDEX 01 51:45:68
  TRACK 29 AUDIO
    INDEX 01 53:35:08
  TRACK 30 AUDIO
    INDEX 01 56:01:18
  TRACK 31 AUDIO
    INDEX 01 56:55:39
  TRACK 32 AUDIO
    INDEX 01 58:12:26
  TRACK 33 AUDIO
    INDEX 01 59:31:35
  TRACK 34 AUDIO
    INDEX 01 62:09:48
  TRACK 35 AUDIO
    INDEX 01 63:50:61
  TRACK 36 AUDIO
    INDEX 01 65:17:03
  TRACK 37 AUDIO
    INDEX 01 66:42:15
  TRACK 38 AUDIO
    INDEX 01 68:31:08

FILE "filename CD 2.mp3" MP3
  TRACK 01 AUDIO
    INDEX 01 00:00:00
  TRACK 02 AUDIO
    INDEX 01 03:49:24
  TRACK 03 AUDIO
    INDEX 01 04:47:65
  TRACK 04 AUDIO
    INDEX 01 06:16:42
  TRACK 05 AUDIO
    INDEX 01 07:45:18
  TRACK 06 AUDIO
    INDEX 01 09:11:16
  TRACK 07 AUDIO
    INDEX 01 10:20:74
  TRACK 08 AUDIO
    INDEX 01 11:40:72
  TRACK 09 AUDIO
    INDEX 01 13:12:13
  TRACK 10 AUDIO
    INDEX 01 13:52:57
  TRACK 11 AUDIO
    INDEX 01 15:39:30
  TRACK 12 AUDIO
    INDEX 01 17:16:61
  TRACK 13 AUDIO
    INDEX 01 19:01:20
  TRACK 14 AUDIO
    INDEX 01 20:23:04
  TRACK 15 AUDIO
    INDEX 01 21:45:70
  TRACK 16 AUDIO
    INDEX 01 22:18:07
  TRACK 17 AUDIO
    INDEX 01 23:52:65
  TRACK 18 AUDIO
    INDEX 01 25:31:43
  TRACK 19 AUDIO
    INDEX 01 26:41:64
  TRACK 20 AUDIO
    INDEX 01 28:59:27
  TRACK 21 AUDIO
    INDEX 01 30:48:04
  TRACK 22 AUDIO
    INDEX 01 32:15:63
  TRACK 23 AUDIO
    INDEX 01 33:42:66
  TRACK 24 AUDIO
    INDEX 01 37:56:59
  TRACK 25 AUDIO
    INDEX 01 40:20:04
  TRACK 26 AUDIO
    INDEX 01 41:47:05
  TRACK 27 AUDIO
    INDEX 01 43:08:22
  TRACK 28 AUDIO
    INDEX 01 44:28:43
  TRACK 29 AUDIO
    INDEX 01 46:21:50
  TRACK 30 AUDIO
    INDEX 01 47:50:36
  TRACK 31 AUDIO
    INDEX 01 48:48:18
  TRACK 32 AUDIO
    INDEX 01 50:43:33
  TRACK 33 AUDIO
    INDEX 01 53:05:42
  TRACK 34 AUDIO
    INDEX 01 54:43:18
  TRACK 35 AUDIO
    INDEX 01 56:17:12
  TRACK 36 AUDIO
    INDEX 01 57:46:16
  TRACK 37 AUDIO
    INDEX 01 59:34:03
  TRACK 38 AUDIO
    INDEX 01 61:16:40
  TRACK 39 AUDIO
    INDEX 01 63:21:41
Wertung: (3)  
Hinzugefügt: 16 March 2011
RSS Feed
RSS Feed
Sprache
Deutsch Englisch Französisch
Mixsuche
Suchbegriff
Genauer Wortlaut
Alle Worte (UND)
Ein Wort (ODER)
Statistik
29558 Mixe eingetragen
28148 Tracklisten
Newsletter
E-Mail
Anmelden
Abmelden
SPONSOREN