Mixkatalog
 Einloggen
Login
Passwort

Best Of March 2016 Megamix Hits: 87  

Best Of March 2016 Megamix


Kurzbeschreibung:
102 tracks in the 3 hour mix! Best Of March 2016 Megamix by HandsProgrez!
 
Crew/DJ: HandsProgrez Reihe: Best Of
Stil: Club Erscheinungsjahr: 2017
CDs: 1 Spielzeit: 185:14
Trackliste:
Cue-Informationen:

PERFORMER "HandsProgrez"
TITLE "Best Of March 2016 Megamix"
FILE "Best Of March 2016 Megamix.mp3" MP3
  TRACK 01 AUDIO
    PERFORMER "Alan Walker"
    TITLE "Faded (Vocal Version)"
    INDEX 01 00:00:00
  TRACK 02 AUDIO
    PERFORMER "Inna"
    TITLE "Rendez Vous (Extended Mix)"
    INDEX 01 01:46:36
  TRACK 03 AUDIO
    PERFORMER "JAN3K"
    TITLE "S.O.S. (Message In A Bottle)"
    INDEX 01 04:03:23
  TRACK 04 AUDIO
    PERFORMER "Dada & Paul Harris feat. Mikala"
    TITLE "Underneath The Stars (KLARDUST Remix)"
    INDEX 01 05:38:72
  TRACK 05 AUDIO
    PERFORMER "Inna"
    TITLE "Rendez Vous (DJ Asher & Screen Remix)"
    INDEX 01 08:08:10
  TRACK 06 AUDIO
    PERFORMER "Selena Gomez"
    TITLE "Hands To Myself (FTampa Bootleg)"
    INDEX 01 10:12:85
  TRACK 07 AUDIO
    PERFORMER "DJ Antoine feat. Antonio Gerardi"
    TITLE "Elevator (DJ Antoine vs. Mad Mark 2k16 Club Mix)"
    INDEX 01 12:24:45
  TRACK 08 AUDIO
    PERFORMER "Empir3 feat. Pit Bailay"
    TITLE "Ride Like The Wind (Jane Vogues Remix)"
    INDEX 01 13:57:94
  TRACK 09 AUDIO
    PERFORMER "Pandaboyz"
    TITLE "Live As Me"
    INDEX 01 16:17:17
  TRACK 10 AUDIO
    PERFORMER "WIL"
    TITLE "What Are We Waiting For (Danny Lee Remix)"
    INDEX 01 18:04:70
  TRACK 11 AUDIO
    PERFORMER "Alan Walker"
    TITLE "Faded (Fanatic Sounds & Older Grand Bootleg)"
    INDEX 01 19:51:48
  TRACK 12 AUDIO
    PERFORMER "Reza & Barry Obzee"
    TITLE "Can't Hold Back"
    INDEX 01 22:14:30
  TRACK 13 AUDIO
    PERFORMER "DJ Antoine feat. Jay Sean"
    TITLE "Weekend Love (DJ Antoine vs. Mad Mark 2k16 Extended Mix)"
    INDEX 01 24:15:22
  TRACK 14 AUDIO
    PERFORMER "19eighty7"
    TITLE "Get It On (Benny Benassi & Mazzz Remix)"
    INDEX 01 26:35:31
  TRACK 15 AUDIO
    PERFORMER "John Dahlbäck vs. Oliver Heldens & Throttle"
    TITLE "Waiting 4 Gargamel (Dirty Rush & Gregor Es Mashup)"
    INDEX 01 28:06:74
  TRACK 16 AUDIO
    PERFORMER "Jack Holiday feat. Cat Alex"
    TITLE "Sober"
    INDEX 01 29:57:20
  TRACK 17 AUDIO
    PERFORMER "AronChupa feat. Little Sis Nora"
    TITLE "Little Swing (Extended Mix)"
    INDEX 01 31:59:10
  TRACK 18 AUDIO
    PERFORMER "R3hab & Quintino"
    TITLE "Freak (Extended Vocal Mix)"
    INDEX 01 33:19:10
  TRACK 19 AUDIO
    PERFORMER "Vali Barbulescu"
    TITLE "Besame (Hudson Leite & Thaellysson Pablo Remix)"
    INDEX 01 35:05:77
  TRACK 20 AUDIO
    PERFORMER "Martin van Lectro"
    TITLE "Never Know (Klaas Remix)"
    INDEX 01 36:39:09
  TRACK 21 AUDIO
    PERFORMER "Ellie Goulding"
    TITLE "Something In The Way You Move (Stefan Rio Bootleg Mix)"
    INDEX 01 38:32:90
  TRACK 22 AUDIO
    PERFORMER "Smash feat. Ridley"
    TITLE "Future People (Atom Mix Remix)"
    INDEX 01 40:20:04
  TRACK 23 AUDIO
    PERFORMER "Duke Dumont"
    TITLE "Ocean Drive (Mike Prado & Alexx Slam Remix)"
    INDEX 01 42:14:33
  TRACK 24 AUDIO
    PERFORMER "Flo Rida"
    TITLE "My House (Nejtrino & Baur Remix)"
    INDEX 01 43:15:28
  TRACK 25 AUDIO
    PERFORMER "Teknova"
    TITLE "Levels"
    INDEX 01 44:31:22
  TRACK 26 AUDIO
    PERFORMER "Tujamo"
    TITLE "Drop That Low (When I Dip) (Extended)"
    INDEX 01 45:47:65
  TRACK 27 AUDIO
    PERFORMER "Тhe Wеекnd"
    TITLE "Тhe НiIIs (Nejtrino & Baur Remix)"
    INDEX 01 47:03:85
  TRACK 28 AUDIO
    PERFORMER "Komodo pres. will.I.am & Luca Debonaire"
    TITLE "I Got It From My Party (Komodo Mash Mix 2)"
    INDEX 01 49:09:55
  TRACK 29 AUDIO
    PERFORMER "Tim Gartz"
    TITLE "Uptown Girl (Nick Havsen Extended Remix)"
    INDEX 01 50:48:60
  TRACK 30 AUDIO
    PERFORMER "Corderoy"
    TITLE "Close My Eyes (Don Diablo Edit)"
    INDEX 01 53:05:73
  TRACK 31 AUDIO
    PERFORMER "DJ Favorite & DJ Lykov"
    TITLE "Rock It"
    INDEX 01 54:37:04
  TRACK 32 AUDIO
    PERFORMER "Alan Walker vs. Oliver Heldens"
    TITLE "Faded Wombass (Fabien Jora Festival Mashup)"
    INDEX 01 56:37:99
  TRACK 33 AUDIO
    PERFORMER "Willy William"
    TITLE "Ego (Nils van Zandt Remix)"
    INDEX 01 58:31:23
  TRACK 34 AUDIO
    PERFORMER "Raw Cole"
    TITLE "Future Summer (Club Mix)"
    INDEX 01 60:47:13
  TRACK 35 AUDIO
    PERFORMER "DJane HouseKat & Rameez"
    TITLE "Ass Up (Slayback & Black Due Bootleg)"
    INDEX 01 62:32:13
  TRACK 36 AUDIO
    PERFORMER "The Black Eyed Peas"
    TITLE "Let's Get It Started (Pride & Chippon Remix)"
    INDEX 01 64:28:37
  TRACK 37 AUDIO
    PERFORMER "LDK & Markess"
    TITLE "Are U Ready"
    INDEX 01 66:24:61
  TRACK 38 AUDIO
    PERFORMER "AronChupa feat. Little Sis Nora"
    TITLE "Little Swing (Zilitik & Big Gabee Club Mix)"
    INDEX 01 68:47:11
  TRACK 39 AUDIO
    PERFORMER "Alan Walker"
    TITLE "Faded (DNF & Vnalogic Remix)"
    INDEX 01 70:00:24
  TRACK 40 AUDIO
    PERFORMER "Chris Deelay"
    TITLE "Wir Feiern (Pulsedriver Bounce Mix)"
    INDEX 01 71:30:24
  TRACK 41 AUDIO
    PERFORMER "Blasterjaxx & Breathe Carolina"
    TITLE "Soldier (Extended Mix)"
    INDEX 01 73:18:99
  TRACK 42 AUDIO
    PERFORMER "NERVO feat. Harrison Miya"
    TITLE "Bulletproof (Dirty Audio Remix)"
    INDEX 01 74:56:50
  TRACK 43 AUDIO
    PERFORMER "Hardwell & KURA"
    TITLE "Calavera (Extended Mix)"
    INDEX 01 76:41:50
  TRACK 44 AUDIO
    PERFORMER "Teknova"
    TITLE "Drop The Bounce"
    INDEX 01 78:26:49
  TRACK 45 AUDIO
    PERFORMER "D!RTY PALM"
    TITLE "Ounce"
    INDEX 01 80:11:48
  TRACK 46 AUDIO
    PERFORMER "Calmani & Grey"
    TITLE "Silver Surfer (Klaas Remix)"
    INDEX 01 81:41:48
  TRACK 47 AUDIO
    PERFORMER "Softplay"
    TITLE "Feelin'"
    INDEX 01 83:33:98
  TRACK 48 AUDIO
    PERFORMER "Tove Lo"
    TITLE "Habits (Stay High) (Cechoś Remix)"
    INDEX 01 85:18:96
  TRACK 49 AUDIO
    PERFORMER "Ummet Ozcan"
    TITLE "Spacecats (Extended Mix)"
    INDEX 01 87:33:96
  TRACK 50 AUDIO
    PERFORMER "Tony Junior, Riggi & Piros"
    TITLE "Make You Go"
    INDEX 01 89:07:71
  TRACK 51 AUDIO
    PERFORMER "Jose AM feat. Lexter"
    TITLE "Fast Lane (Jack Mazzoni Remix)"
    INDEX 01 90:37:71
  TRACK 52 AUDIO
    PERFORMER "TJR feat. Savage"
    TITLE "We Wanna Party (Extended Mix)"
    INDEX 01 91:20:83
  TRACK 53 AUDIO
    PERFORMER "DJ Kuba & Neitan"
    TITLE "Drop The Beat"
    INDEX 01 92:50:83
  TRACK 54 AUDIO
    PERFORMER "Jay Sean feat. Sean Paul"
    TITLE "Make My Love Go (Allen Heinz Remix)"
    INDEX 01 94:50:82
  TRACK 55 AUDIO
    PERFORMER "Liam Turner & Skyrec"
    TITLE "The Clock"
    INDEX 01 95:50:83
  TRACK 56 AUDIO
    PERFORMER "R3hab & Ciara"
    TITLE "Get Up (Mikro Remix)"
    INDEX 01 98:02:07
  TRACK 57 AUDIO
    PERFORMER "Supermode"
    TITLE "Tell Me Why 2k16 (NoizBasses Bootleg)"
    INDEX 01 99:32:06
  TRACK 58 AUDIO
    PERFORMER "Modjo"
    TITLE "Lady (DJ Pitchugin Remix)"
    INDEX 01 101:47:08
  TRACK 59 AUDIO
    PERFORMER "Clubraiders"
    TITLE "Move Your Hands Up (Bodybangers Remix)"
    INDEX 01 103:35:83
  TRACK 60 AUDIO
    PERFORMER "Chunks + I.N.H. feat. Raiide"
    TITLE "Chicas"
    INDEX 01 106:20:82
  TRACK 61 AUDIO
    PERFORMER "Mario Bischin"
    TITLE "Boogie Song (Extended Version)"
    INDEX 01 107:50:82
  TRACK 62 AUDIO
    PERFORMER "BDG"
    TITLE "Somebody's Watching Me (BDG Club Mix)"
    INDEX 01 108:58:32
  TRACK 63 AUDIO
    PERFORMER "Geo Da Silva X Sean Norvis"
    TITLE "Noaptea I Nebuna (Fizo Faouez Official Remix)"
    INDEX 01 111:13:32
  TRACK 64 AUDIO
    PERFORMER "Yomanda & Mauro Picotto"
    TITLE "Opera Amsterdam 2016 (DBL Rework)"
    INDEX 01 113:13:32
  TRACK 65 AUDIO
    PERFORMER "Jonas Blue feat. Dakota"
    TITLE "Fast Car (Menegatti & Fatrix Remix)"
    INDEX 01 114:58:31
  TRACK 66 AUDIO
    PERFORMER "Desperado"
    TITLE "Táncolj 2016 (Leslie Jr. Club Mix)"
    INDEX 01 117:20:82
  TRACK 67 AUDIO
    PERFORMER "Christina Matsa"
    TITLE "If You Wanna (Hudson Leite & Thaellysson Pablo Remix)"
    INDEX 01 119:02:06
  TRACK 68 AUDIO
    PERFORMER "Vandalism vs. Bombs Away"
    TITLE "Stupid Hot"
    INDEX 01 121:02:06
  TRACK 69 AUDIO
    PERFORMER "Cosmo & Skoro feat. Rel"
    TITLE "Aftertaste"
    INDEX 01 122:47:08
  TRACK 70 AUDIO
    PERFORMER "Rob & Chris feat. Udo Bonstrup"
    TITLE "Instabitch (Extended Mix)"
    INDEX 01 125:05:82
  TRACK 71 AUDIO
    PERFORMER "Charlotte Devaney feat. Snoop Dogg"
    TITLE "Flip It (Dirtydisco Bootleg)"
    INDEX 01 126:35:82
  TRACK 72 AUDIO
    PERFORMER "Big Daddi feat. Enzo Amos"
    TITLE "That's Amore (DISCOTEK Remix)"
    INDEX 01 128:11:45
  TRACK 73 AUDIO
    PERFORMER "I.GOT.U"
    TITLE "Luvstruck 2k16"
    INDEX 01 129:43:32
  TRACK 74 AUDIO
    PERFORMER "Zara Larsson"
    TITLE "Uncover 2016 (Cechoś Remix)"
    INDEX 01 131:39:57
  TRACK 75 AUDIO
    PERFORMER "Tom Dot Kom"
    TITLE "One Night In Bangkok"
    INDEX 01 133:26:42
  TRACK 76 AUDIO
    PERFORMER "Aqua"
    TITLE "Barbie Girl (Andrey Vertuga & DJ RODION Remix)"
    INDEX 01 134:56:45
  TRACK 77 AUDIO
    PERFORMER "Valentino Khan"
    TITLE "Deep Down Low (Jack Mazzoni Remix)"
    INDEX 01 137:39:57
  TRACK 78 AUDIO
    PERFORMER "Cash Cash feat. Jacquie Lee"
    TITLE "Aftershock (SCNDL Remix)"
    INDEX 01 138:54:56
  TRACK 79 AUDIO
    PERFORMER "Older Grand & NoizBasses"
    TITLE "Hold Me Crazy"
    INDEX 01 140:54:54
  TRACK 80 AUDIO
    PERFORMER "Taylor & Gáspár Laci"
    TITLE "White Dove (Antoan & Fernando Club Edit)"
    INDEX 01 142:09:56
  TRACK 81 AUDIO
    PERFORMER "Bounce Inc."
    TITLE "Don't Stop"
    INDEX 01 143:11:44
  TRACK 82 AUDIO
    PERFORMER "I.GOT.U"
    TITLE "#RAVELORD"
    INDEX 01 145:00:19
  TRACK 83 AUDIO
    PERFORMER "Sonic One"
    TITLE "Punk! (twoloud Remix)"
    INDEX 01 147:00:19
  TRACK 84 AUDIO
    PERFORMER "Zara Larson & MNEK"
    TITLE "Never Forget You (Djuro Bootleg)"
    INDEX 01 149:00:19
  TRACK 85 AUDIO
    PERFORMER "HLM"
    TITLE "U Not There"
    INDEX 01 152:15:19
  TRACK 86 AUDIO
    PERFORMER "Sunstars & SISSA"
    TITLE "Talk"
    INDEX 01 153:45:19
  TRACK 87 AUDIO
    PERFORMER "JETFIRE"
    TITLE "Resistance"
    INDEX 01 155:15:20
  TRACK 88 AUDIO
    PERFORMER "DJ Górski vs. DJ Insane & Calvin Shock"
    TITLE "What You Do To Me"
    INDEX 01 156:48:92
  TRACK 89 AUDIO
    PERFORMER "Alien Cut & Dino Brown feat. Vivian B"
    TITLE "Love Me Boy (DJ SLaySH Remix 2016)"
    INDEX 01 158:03:92
  TRACK 90 AUDIO
    PERFORMER "Saxo"
    TITLE "Les Bruits De La Foret 2k16 (Nils van Zandt Extended Mix)"
    INDEX 01 159:35:73
  TRACK 91 AUDIO
    PERFORMER "W&W"
    TITLE "How Many (Extended Mix)"
    INDEX 01 161:20:73
  TRACK 92 AUDIO
    PERFORMER "Nils van Zandt & Nicci"
    TITLE "Up & Down (Original Extended Mix)"
    INDEX 01 163:35:73
  TRACK 93 AUDIO
    PERFORMER "C-Bool feat. Isabelle"
    TITLE "Body & Soul (NEXBOY & DBL Bootleg)"
    INDEX 01 165:28:23
  TRACK 94 AUDIO
    PERFORMER "Picco"
    TITLE "Light My Fire"
    INDEX 01 167:43:29
  TRACK 95 AUDIO
    PERFORMER "DISCOTEK vs. DJ COMBO feat. Donnie Ozone"
    TITLE "We Don't Care (Extended Mix)"
    INDEX 01 169:31:96
  TRACK 96 AUDIO
    PERFORMER "Dancefloor Kingz vs. Alex van Tune"
    TITLE "Everybody Dance (Gordon & Doyle Remix)"
    INDEX 01 170:41:31
  TRACK 97 AUDIO
    PERFORMER "Anna Naklab & Alle Farben"
    TITLE "Supergirl (Stereo Players Remix)"
    INDEX 01 173:18:63
  TRACK 98 AUDIO
    PERFORMER "Energy 52"
    TITLE "Cafe Del Mar 2016 (Stereo Players Remix)"
    INDEX 01 175:16:78
  TRACK 99 AUDIO
    PERFORMER "Clubhunter"
    TITLE "Me & You (Turbotronic Mix)"
    INDEX 01 176:47:25
  TRACK 100 AUDIO
    PERFORMER "Jordi MB feat. Jason Rene"
    TITLE "You (Extended Mix)"
    INDEX 01 178:56:51
  TRACK 101 AUDIO
    PERFORMER "Turbotronic"
    TITLE "Hot Body"
    INDEX 01 180:56:49
  TRACK 102 AUDIO
    PERFORMER "Cleo"
    TITLE "Zabiorę Nas (CandyNoize Hot Bootleg)"
    INDEX 01 182:40:77
Wertung: (6)  
Hinzugefügt: 17 July 2017
RSS Feed
RSS Feed
Sprache
Deutsch Englisch Französisch
Mixsuche
Suchbegriff
Genauer Wortlaut
Alle Worte (UND)
Ein Wort (ODER)
Statistik
29475 Mixe eingetragen
28070 Tracklisten
Newsletter
E-Mail
Anmelden
Abmelden
SPONSOREN