Mixkatalog
 Einloggen
Login
Passwort

Mallorca Top 100 Hits: 145  

Mallorca Top 100


Kurzbeschreibung:
SWG präsentiert Mallorca Top 100. Die 100 Besten Partyhits im Megamix, gemixt von DJ Deep.
 
Crew/DJ: SWG Reihe: Top 100
Stil: Dance Erscheinungsjahr: 2006
CDs: 2 Spielzeit: 152:53
Trackliste:
Cue-Informationen:

FILE "filename CD 1.mp3" MP3
  TRACK 01 AUDIO
    INDEX 01 00:00:00
  TRACK 02 AUDIO
    INDEX 01 02:19:18
  TRACK 03 AUDIO
    INDEX 01 03:47:27
  TRACK 04 AUDIO
    INDEX 01 05:01:09
  TRACK 05 AUDIO
    INDEX 01 06:33:39
  TRACK 06 AUDIO
    INDEX 01 07:32:46
  TRACK 07 AUDIO
    INDEX 01 08:59:67
  TRACK 08 AUDIO
    INDEX 01 10:23:40
  TRACK 09 AUDIO
    INDEX 01 11:38:32
  TRACK 10 AUDIO
    INDEX 01 13:21:10
  TRACK 11 AUDIO
    INDEX 01 14:41:62
  TRACK 12 AUDIO
    INDEX 01 16:41:32
  TRACK 13 AUDIO
    INDEX 01 17:51:19
  TRACK 14 AUDIO
    INDEX 01 19:18:26
  TRACK 15 AUDIO
    INDEX 01 21:05:45
  TRACK 16 AUDIO
    INDEX 01 23:35:08
  TRACK 17 AUDIO
    INDEX 01 24:40:30
  TRACK 18 AUDIO
    INDEX 01 26:17:46
  TRACK 19 AUDIO
    INDEX 01 27:35:60
  TRACK 20 AUDIO
    INDEX 01 28:25:15
  TRACK 21 AUDIO
    INDEX 01 30:06:48
  TRACK 22 AUDIO
    INDEX 01 31:19:68
  TRACK 23 AUDIO
    INDEX 01 32:46:27
  TRACK 24 AUDIO
    INDEX 01 34:09:66
  TRACK 25 AUDIO
    INDEX 01 36:04:56
  TRACK 26 AUDIO
    INDEX 01 37:01:22
  TRACK 27 AUDIO
    INDEX 01 38:23:44
  TRACK 28 AUDIO
    INDEX 01 39:59:44
  TRACK 29 AUDIO
    INDEX 01 41:37:21
  TRACK 30 AUDIO
    INDEX 01 43:54:26
  TRACK 31 AUDIO
    INDEX 01 44:47:71
  TRACK 32 AUDIO
    INDEX 01 46:17:11
  TRACK 33 AUDIO
    INDEX 01 47:39:74
  TRACK 34 AUDIO
    INDEX 01 48:55:37
  TRACK 35 AUDIO
    INDEX 01 50:33:39
  TRACK 36 AUDIO
    INDEX 01 52:08:13
  TRACK 37 AUDIO
    INDEX 01 53:59:41
  TRACK 38 AUDIO
    INDEX 01 55:34:71
  TRACK 39 AUDIO
    INDEX 01 57:22:70
  TRACK 40 AUDIO
    INDEX 01 59:23:55
  TRACK 41 AUDIO
    INDEX 01 60:39:25
  TRACK 42 AUDIO
    INDEX 01 62:04:49
  TRACK 43 AUDIO
    INDEX 01 63:26:40
  TRACK 44 AUDIO
    INDEX 01 64:55:59
  TRACK 45 AUDIO
    INDEX 01 66:45:41
  TRACK 46 AUDIO
    INDEX 01 68:23:42
  TRACK 47 AUDIO
    INDEX 01 70:15:51
  TRACK 48 AUDIO
    INDEX 01 71:17:04
  TRACK 49 AUDIO
    INDEX 01 73:22:52
  TRACK 50 AUDIO
    INDEX 01 74:29:70

FILE "filename CD 2.mp3" MP3
  TRACK 01 AUDIO
    INDEX 01 00:00:00
  TRACK 02 AUDIO
    INDEX 01 01:37:74
  TRACK 03 AUDIO
    INDEX 01 03:18:05
  TRACK 04 AUDIO
    INDEX 01 04:21:00
  TRACK 05 AUDIO
    INDEX 01 05:52:22
  TRACK 06 AUDIO
    INDEX 01 06:51:30
  TRACK 07 AUDIO
    INDEX 01 08:21:39
  TRACK 08 AUDIO
    INDEX 01 09:34:41
  TRACK 09 AUDIO
    INDEX 01 10:31:71
  TRACK 10 AUDIO
    INDEX 01 15:24:56
  TRACK 11 AUDIO
    INDEX 01 16:39:65
  TRACK 12 AUDIO
    INDEX 01 17:50:26
  TRACK 13 AUDIO
    INDEX 01 19:06:54
  TRACK 14 AUDIO
    INDEX 01 20:40:59
  TRACK 15 AUDIO
    INDEX 01 21:56:08
  TRACK 16 AUDIO
    INDEX 01 24:12:74
  TRACK 17 AUDIO
    INDEX 01 25:36:17
  TRACK 18 AUDIO
    INDEX 01 26:56:69
  TRACK 19 AUDIO
    INDEX 01 28:17:45
  TRACK 20 AUDIO
    INDEX 01 29:41:18
  TRACK 21 AUDIO
    INDEX 01 31:06:56
  TRACK 22 AUDIO
    INDEX 01 32:01:25
  TRACK 23 AUDIO
    INDEX 01 33:15:65
  TRACK 24 AUDIO
    INDEX 01 34:46:57
  TRACK 25 AUDIO
    INDEX 01 36:20:01
  TRACK 26 AUDIO
    INDEX 01 37:27:64
  TRACK 27 AUDIO
    INDEX 01 38:11:53
  TRACK 28 AUDIO
    INDEX 01 39:25:73
  TRACK 29 AUDIO
    INDEX 01 40:41:13
  TRACK 30 AUDIO
    INDEX 01 42:41:32
  TRACK 31 AUDIO
    INDEX 01 43:55:20
  TRACK 32 AUDIO
    INDEX 01 45:42:17
  TRACK 33 AUDIO
    INDEX 01 47:31:02
  TRACK 34 AUDIO
    INDEX 01 48:52:00
  TRACK 35 AUDIO
    INDEX 01 50:05:48
  TRACK 36 AUDIO
    INDEX 01 51:48:31
  TRACK 37 AUDIO
    INDEX 01 53:02:00
  TRACK 38 AUDIO
    INDEX 01 54:25:46
  TRACK 39 AUDIO
    INDEX 01 55:28:64
  TRACK 40 AUDIO
    INDEX 01 57:09:47
  TRACK 41 AUDIO
    INDEX 01 58:22:57
  TRACK 42 AUDIO
    INDEX 01 59:50:56
  TRACK 43 AUDIO
    INDEX 01 61:41:13
  TRACK 44 AUDIO
    INDEX 01 63:01:64
  TRACK 45 AUDIO
    INDEX 01 64:42:58
  TRACK 46 AUDIO
    INDEX 01 66:21:72
  TRACK 47 AUDIO
    INDEX 01 67:24:70
  TRACK 48 AUDIO
    INDEX 01 69:44:53
  TRACK 49 AUDIO
    INDEX 01 70:49:56
  TRACK 50 AUDIO
    INDEX 01 71:53:26
Wertung: (1)  
Hinzugefügt: 14 March 2011
RSS Feed
RSS Feed
Sprache
Deutsch Englisch Französisch
Mixsuche
Suchbegriff
Genauer Wortlaut
Alle Worte (UND)
Ein Wort (ODER)
Statistik
30199 Mixe eingetragen
28541 Tracklisten
Newsletter
E-Mail
Anmelden
Abmelden
SPONSOREN