Mixkatalog
SPONSOREN
 Einloggen
Login
Passwort

Chartmix 5 Hits: 103  

Chartmix 5


Kurzbeschreibung:
SWG präsentiert Chartmix Volume 5. 79 Hits im Megamix, gemixt von DJ Deep.
 
Crew/DJ: SWG Reihe: Chart Mix
Stil: Dance Erscheinungsjahr: 1999
Anzahl Tonträger: 2 Spielzeit: 115:41
Trackliste:
Cue-Informationen:

FILE "filename CD 1.mp3"
  TRACK 01 AUDIO
    INDEX 01 00:00:00
  TRACK 02 AUDIO
    INDEX 01 01:34:00
  TRACK 03 AUDIO
    INDEX 01 03:19:00
  TRACK 04 AUDIO
    INDEX 01 05:08:00
  TRACK 05 AUDIO
    INDEX 01 06:31:00
  TRACK 06 AUDIO
    INDEX 01 08:44:00
  TRACK 07 AUDIO
    INDEX 01 10:13:00
  TRACK 08 AUDIO
    INDEX 01 11:15:00
  TRACK 09 AUDIO
    INDEX 01 13:48:00
  TRACK 10 AUDIO
    INDEX 01 15:34:00
  TRACK 11 AUDIO
    INDEX 01 17:25:00
  TRACK 12 AUDIO
    INDEX 01 18:50:00
  TRACK 13 AUDIO
    INDEX 01 20:17:00
  TRACK 14 AUDIO
    INDEX 01 21:29:00
  TRACK 15 AUDIO
    INDEX 01 22:41:00
  TRACK 16 AUDIO
    INDEX 01 24:29:00
  TRACK 17 AUDIO
    INDEX 01 25:51:00
  TRACK 18 AUDIO
    INDEX 01 27:22:00
  TRACK 19 AUDIO
    INDEX 01 29:20:00
  TRACK 20 AUDIO
    INDEX 01 31:03:00
  TRACK 21 AUDIO
    INDEX 01 32:41:00
  TRACK 22 AUDIO
    INDEX 01 34:06:00
  TRACK 23 AUDIO
    INDEX 01 35:45:00
  TRACK 24 AUDIO
    INDEX 01 37:24:00
  TRACK 25 AUDIO
    INDEX 01 38:37:00
  TRACK 26 AUDIO
    INDEX 01 40:22:00
  TRACK 27 AUDIO
    INDEX 01 41:40:00
  TRACK 28 AUDIO
    INDEX 01 42:42:00
  TRACK 29 AUDIO
    INDEX 01 44:24:00
  TRACK 30 AUDIO
    INDEX 01 46:14:00
  TRACK 31 AUDIO
    INDEX 01 48:05:00
  TRACK 32 AUDIO
    INDEX 01 49:20:00
  TRACK 33 AUDIO
    INDEX 01 51:04:00
  TRACK 34 AUDIO
    INDEX 01 53:12:00
  TRACK 35 AUDIO
    INDEX 01 54:14:00
  TRACK 36 AUDIO
    INDEX 01 55:21:00
  TRACK 37 AUDIO
    INDEX 01 57:10:00
  TRACK 38 AUDIO
    INDEX 01 58:19:00
  TRACK 39 AUDIO
    INDEX 01 59:18:00
  TRACK 40 AUDIO
    INDEX 01 61:07:00

FILE "filename CD 2.mp3" MP3
  TRACK 01 AUDIO
    INDEX 01 00:00:00
  TRACK 02 AUDIO
    INDEX 01 02:10:71
  TRACK 03 AUDIO
    INDEX 01 03:21:17
  TRACK 04 AUDIO
    INDEX 01 04:47:08
  TRACK 05 AUDIO
    INDEX 01 06:19:52
  TRACK 06 AUDIO
    INDEX 01 07:54:52
  TRACK 07 AUDIO
    INDEX 01 09:10:41
  TRACK 08 AUDIO
    INDEX 01 10:34:07
  TRACK 09 AUDIO
    INDEX 01 12:21:70
  TRACK 10 AUDIO
    INDEX 01 13:07:74
  TRACK 11 AUDIO
    INDEX 01 13:53:09
  TRACK 12 AUDIO
    INDEX 01 14:22:63
  TRACK 13 AUDIO
    INDEX 01 15:50:66
  TRACK 14 AUDIO
    INDEX 01 17:48:43
  TRACK 15 AUDIO
    INDEX 01 19:50:48
  TRACK 16 AUDIO
    INDEX 01 21:02:47
  TRACK 17 AUDIO
    INDEX 01 22:27:33
  TRACK 18 AUDIO
    INDEX 01 23:38:59
  TRACK 19 AUDIO
    INDEX 01 24:56:63
  TRACK 20 AUDIO
    INDEX 01 26:20:24
  TRACK 21 AUDIO
    INDEX 01 27:52:42
  TRACK 22 AUDIO
    INDEX 01 29:50:66
  TRACK 23 AUDIO
    INDEX 01 30:45:16
  TRACK 24 AUDIO
    INDEX 01 32:10:66
  TRACK 25 AUDIO
    INDEX 01 34:06:33
  TRACK 26 AUDIO
    INDEX 01 35:21:39
  TRACK 27 AUDIO
    INDEX 01 36:32:56
  TRACK 28 AUDIO
    INDEX 01 37:51:49
  TRACK 29 AUDIO
    INDEX 01 39:40:19
  TRACK 30 AUDIO
    INDEX 01 41:05:44
  TRACK 31 AUDIO
    INDEX 01 42:04:25
  TRACK 32 AUDIO
    INDEX 01 42:25:35
  TRACK 33 AUDIO
    INDEX 01 43:18:07
  TRACK 34 AUDIO
    INDEX 01 44:39:10
  TRACK 35 AUDIO
    INDEX 01 45:36:28
  TRACK 36 AUDIO
    INDEX 01 46:44:74
  TRACK 37 AUDIO
    INDEX 01 48:49:44
  TRACK 38 AUDIO
    INDEX 01 50:21:03
  TRACK 39 AUDIO
    INDEX 01 51:34:31
Wertung: ()  
Hinzugefügt: 19 February 2011
Bewerte als Erster diesen Mix:
RSS Feed
RSS Feed
Sprache
Deutsch Englisch Französisch
Mixsuche
Suchbegriff
Genauer Wortlaut
Alle Worte (UND)
Ein Wort (ODER)
Statistik
36074 Mixe eingetragen
34133 Tracklisten
Newsletter
E-Mail
Anmelden
Abmelden
SPONSOREN