Mixkatalog
 Einloggen
Login
Passwort

Deep Dance 103½ Hits: 91  

Deep Dance 103½


Kurzbeschreibung:
Deep präsentiert den Deep Dance 103½ - The Real Yearmix 2005.
 
Crew/DJ: Deep Reihe: DD Serie Erstauflage
Stil: Dance Erscheinungsjahr: 2006
Anzahl Tonträger: 1 Spielzeit: 79:17
Trackliste:
Cue-Informationen:

FILE "filename.mp3" MP3
  TRACK 01 AUDIO
    INDEX 01 00:00:00
  TRACK 02 AUDIO
    INDEX 01 00:58:60
  TRACK 03 AUDIO
    INDEX 01 05:37:04
  TRACK 04 AUDIO
    INDEX 01 12:32:69
  TRACK 05 AUDIO
    INDEX 01 17:58:58
  TRACK 06 AUDIO
    INDEX 01 23:33:58
  TRACK 07 AUDIO
    INDEX 01 28:21:25
  TRACK 08 AUDIO
    INDEX 01 32:44:17
  TRACK 09 AUDIO
    INDEX 01 38:28:55
  TRACK 10 AUDIO
    INDEX 01 44:28:07
  TRACK 11 AUDIO
    INDEX 01 48:56:43
  TRACK 12 AUDIO
    INDEX 01 53:42:30
  TRACK 13 AUDIO
    INDEX 01 57:19:48
  TRACK 14 AUDIO
    INDEX 01 63:01:28
  TRACK 15 AUDIO
    INDEX 01 65:52:40
  TRACK 16 AUDIO
    INDEX 01 69:20:39
  TRACK 17 AUDIO
    INDEX 01 73:43:61
  TRACK 18 AUDIO
    INDEX 01 77:56:69
Wertung: (1)  
Hinzugefügt: 11 February 2011
RSS Feed
RSS Feed
Sprache
Deutsch Englisch Französisch
Mixsuche
Suchbegriff
Genauer Wortlaut
Alle Worte (UND)
Ein Wort (ODER)
Statistik
13418 Mixe eingetragen
13124 Tracklisten
Newsletter
E-Mail
Anmelden
Abmelden
SPONSOREN