Mixkatalog
 Einloggen
Login
Passwort

Madonna Deep Throat 1 Hits: 39  

Madonna Deep Throat 1


Kurzbeschreibung:
Deep präsentiert Madonna Deep Throat Volume 1. Rare Remixes & Megamixes erschienen als Funky-Mix DJ Service.
 
Crew/DJ: Deep Reihe: Deep Artist Mixe
Stil: Pop Erscheinungsjahr: 1993
CDs: 1 Spielzeit: 73:47
Trackliste:
Cue-Informationen:

FILE "filename.mp3" MP3
  TRACK 01 AUDIO
    INDEX 01 00:00:00
  TRACK 02 AUDIO
    INDEX 01 29:47:26
  TRACK 03 AUDIO
    INDEX 01 38:27:52
  TRACK 04 AUDIO
    INDEX 01 50:52:27
  TRACK 05 AUDIO
    INDEX 01 58:06:28
  TRACK 06 AUDIO
    INDEX 01 69:09:15
Wertung: (2)  
Hinzugefügt: 2 February 2011
RSS Feed
RSS Feed
Sprache
Deutsch Englisch Französisch
Mixsuche
Suchbegriff
Genauer Wortlaut
Alle Worte (UND)
Ein Wort (ODER)
Statistik
34688 Mixe eingetragen
32809 Tracklisten
Newsletter
E-Mail
Anmelden
Abmelden
SPONSOREN