Mixkatalog
 Einloggen
Login
Passwort

Michael Jackson Remind 2 Hits: 44  

Michael Jackson Remind 2


Kurzbeschreibung:
Deep präsentiert Michael Jackson Remind Volume 2.
 
Crew/DJ: Deep Reihe: Deep Artist Mixe
Stil: Pop Erscheinungsjahr: 1995
CDs: 1 Spielzeit: 73:48
Trackliste:
Cue-Informationen:

FILE "filename.mp3" MP3
  TRACK 01 AUDIO
    INDEX 01 00:00:00
  TRACK 02 AUDIO
    INDEX 01 33:13:72
  TRACK 03 AUDIO
    INDEX 01 48:32:38
Wertung: (4)  
Hinzugefügt: 2 February 2011
RSS Feed
RSS Feed
Sprache
Deutsch Englisch Französisch
Mixsuche
Suchbegriff
Genauer Wortlaut
Alle Worte (UND)
Ein Wort (ODER)
Statistik
34690 Mixe eingetragen
32811 Tracklisten
Newsletter
E-Mail
Anmelden
Abmelden
SPONSOREN