Mixkatalog
 Einloggen
Login
Passwort

Michael Jackson Remind 1 The Remix Hits: 348  

Michael Jackson Remind 1 The Remix


Kurzbeschreibung:
Deep präsentiert Michael Jackson Remind Volume 1 The Remix, gemixt von DJ Ice.
 
Crew/DJ: Deep Reihe: Deep Artist Mixe
Stil: Pop Erscheinungsjahr: 1992
CDs: 1 Spielzeit: 62:43
Trackliste:
Cue-Informationen:

FILE "filename.mp3" MP3
  TRACK 01 AUDIO
    INDEX 01 00:00:00
  TRACK 02 AUDIO
    INDEX 01 27:16:33
  TRACK 03 AUDIO
    INDEX 01 35:41:25
Wertung: (3)  
Hinzugefügt: 2 February 2011
RSS Feed
RSS Feed
Sprache
Deutsch Englisch Französisch
Mixsuche
Suchbegriff
Genauer Wortlaut
Alle Worte (UND)
Ein Wort (ODER)
Statistik
29558 Mixe eingetragen
28148 Tracklisten
Newsletter
E-Mail
Anmelden
Abmelden
SPONSOREN