Mixkatalog
 Einloggen
Login
Passwort

The Real Internet No. 21 Hits: 166  

The Real Internet No. 21


Kurzbeschreibung:
Mix For You (M.F.Y.) präsentiert The Real Internet No. 21, gemixt von DJ Ton.
 
Crew/DJ: Mix For You Reihe: The Real Internet
Stil: Dance Erscheinungsjahr: 1999
CDs: 1 Spielzeit: 73:56
Trackliste:
Cue-Informationen:

FILE "filename.mp3" MP3
  TRACK 01 AUDIO
    INDEX 01 00:00:00
  TRACK 02 AUDIO
    INDEX 01 01:21:36
  TRACK 03 AUDIO
    INDEX 01 03:19:32
  TRACK 04 AUDIO
    INDEX 01 05:42:22
  TRACK 05 AUDIO
    INDEX 01 09:21:21
  TRACK 06 AUDIO
    INDEX 01 11:59:26
  TRACK 07 AUDIO
    INDEX 01 15:35:52
  TRACK 08 AUDIO
    INDEX 01 18:38:45
  TRACK 09 AUDIO
    INDEX 01 21:29:43
  TRACK 10 AUDIO
    INDEX 01 25:16:08
  TRACK 11 AUDIO
    INDEX 01 30:17:42
  TRACK 12 AUDIO
    INDEX 01 32:50:20
  TRACK 13 AUDIO
    INDEX 01 35:35:70
  TRACK 14 AUDIO
    INDEX 01 39:36:57
  TRACK 15 AUDIO
    INDEX 01 41:41:12
  TRACK 16 AUDIO
    INDEX 01 45:15:10
  TRACK 17 AUDIO
    INDEX 01 49:16:59
  TRACK 18 AUDIO
    INDEX 01 52:16:50
  TRACK 19 AUDIO
    INDEX 01 55:51:53
  TRACK 20 AUDIO
    INDEX 01 58:09:32
  TRACK 21 AUDIO
    INDEX 01 60:12:60
  TRACK 22 AUDIO
    INDEX 01 64:24:35
  TRACK 23 AUDIO
    INDEX 01 69:35:34
Wertung: (1)  
Hinzugefügt: 23 January 2011
RSS Feed
RSS Feed
Sprache
Deutsch Englisch Französisch
Mixsuche
Suchbegriff
Genauer Wortlaut
Alle Worte (UND)
Ein Wort (ODER)
Statistik
30199 Mixe eingetragen
28541 Tracklisten
Newsletter
E-Mail
Anmelden
Abmelden
SPONSOREN