Mixkatalog
 Einloggen
Login
Passwort

Special Edition IV Hits: 1  

Special Edition IV


Kurzbeschreibung:
Mix For You (M.F.Y.) präsentiert den Special Edition IV.
 
Crew/DJ: Mix For You Reihe: Sonstige
Stil: Dance Erscheinungsjahr: 1997
CDs: 1 Spielzeit: 73:22
Trackliste:
Cue-Informationen:

FILE "filename.mp3" MP3
  TRACK 01 AUDIO
    INDEX 01 00:00:30
  TRACK 02 AUDIO
    INDEX 01 00:45:30
  TRACK 03 AUDIO
    INDEX 01 02:09:20
  TRACK 04 AUDIO
    INDEX 01 04:18:55
  TRACK 05 AUDIO
    INDEX 01 05:59:42
  TRACK 06 AUDIO
    INDEX 01 07:01:35
  TRACK 07 AUDIO
    INDEX 01 08:45:32
  TRACK 08 AUDIO
    INDEX 01 10:58:22
  TRACK 09 AUDIO
    INDEX 01 11:55:45
  TRACK 10 AUDIO
    INDEX 01 13:07:35
  TRACK 11 AUDIO
    INDEX 01 15:46:02
  TRACK 12 AUDIO
    INDEX 01 16:16:05
  TRACK 13 AUDIO
    INDEX 01 19:26:05
  TRACK 14 AUDIO
    INDEX 01 26:08:37
  TRACK 15 AUDIO
    INDEX 01 29:29:40
  TRACK 16 AUDIO
    INDEX 01 30:44:50
  TRACK 17 AUDIO
    INDEX 01 32:04:15
  TRACK 18 AUDIO
    INDEX 01 33:23:40
  TRACK 19 AUDIO
    INDEX 01 34:45:12
  TRACK 20 AUDIO
    INDEX 01 36:08:45
  TRACK 21 AUDIO
    INDEX 01 36:49:65
  TRACK 22 AUDIO
    INDEX 01 38:04:20
  TRACK 23 AUDIO
    INDEX 01 39:28:57
  TRACK 24 AUDIO
    INDEX 01 40:37:17
  TRACK 25 AUDIO
    INDEX 01 41:42:42
  TRACK 26 AUDIO
    INDEX 01 43:26:67
  TRACK 27 AUDIO
    INDEX 01 45:08:22
  TRACK 28 AUDIO
    INDEX 01 46:30:55
  TRACK 29 AUDIO
    INDEX 01 48:39:30
  TRACK 30 AUDIO
    INDEX 01 49:34:32
  TRACK 31 AUDIO
    INDEX 01 51:30:72
  TRACK 32 AUDIO
    INDEX 01 53:13:65
  TRACK 33 AUDIO
    INDEX 01 54:42:47
  TRACK 34 AUDIO
    INDEX 01 56:29:62
  TRACK 35 AUDIO
    INDEX 01 58:41:25
  TRACK 36 AUDIO
    INDEX 01 62:02:70
  TRACK 37 AUDIO
    INDEX 01 65:33:15
  TRACK 38 AUDIO
    INDEX 01 69:21:10
Wertung: (1)  
Hinzugefügt: 23 January 2011
RSS Feed
RSS Feed
Sprache
Deutsch Englisch Französisch
Mixsuche
Suchbegriff
Genauer Wortlaut
Alle Worte (UND)
Ein Wort (ODER)
Statistik
29581 Mixe eingetragen
28170 Tracklisten
Newsletter
E-Mail
Anmelden
Abmelden
SPONSOREN