Mixkatalog
 Einloggen
Login
Passwort

Summer-Party-Mix 1 Hits: 32  

Summer-Party-Mix 1


Kurzbeschreibung:
Mix For You (M.F.Y.) präsentiert den Summer Party Mix Volume 1.
 
Crew/DJ: Mix For You Reihe: Summer Party
Stil: Party Erscheinungsjahr: 1996
CDs: 1 Spielzeit: 71:48
Trackliste:
Cue-Informationen:

FILE "filename.mp3" MP3
  TRACK 01 AUDIO
    INDEX 01 00:00:00
  TRACK 02 AUDIO
    INDEX 01 28:24:27
  TRACK 03 AUDIO
    INDEX 01 36:32:52
  TRACK 04 AUDIO
    INDEX 01 42:34:30
  TRACK 05 AUDIO
    INDEX 01 45:45:70
  TRACK 06 AUDIO
    INDEX 01 49:06:35
  TRACK 07 AUDIO
    INDEX 01 53:18:67
  TRACK 08 AUDIO
    INDEX 01 56:52:45
  TRACK 09 AUDIO
    INDEX 01 64:27:70
  TRACK 10 AUDIO
    INDEX 01 67:32:45
Wertung: (2)  
Hinzugefügt: 23 January 2011
RSS Feed
RSS Feed
Sprache
Deutsch Englisch Französisch
Mixsuche
Suchbegriff
Genauer Wortlaut
Alle Worte (UND)
Ein Wort (ODER)
Statistik
34688 Mixe eingetragen
32809 Tracklisten
Newsletter
E-Mail
Anmelden
Abmelden
SPONSOREN