Mixkatalog
 Einloggen
Login
Passwort

Hitmix 124 Hits: 74  

Hitmix 124


Kurzbeschreibung:
DJ Reiner präsentiert Hitmix Volume 124.
 
Crew/DJ: DJ Reiner Reihe: Hit Mix
Stil: Dance Erscheinungsjahr: 2008
Anzahl Tonträger: 1 Spielzeit: 79:24
Trackliste:
Cue-Informationen:

FILE "filename.mp3" MP3
  TRACK 01 AUDIO
    INDEX 01 00:00:00
  TRACK 02 AUDIO
    INDEX 01 01:17:24
  TRACK 03 AUDIO
    INDEX 01 05:24:48
  TRACK 04 AUDIO
    INDEX 01 09:31:72
  TRACK 05 AUDIO
    INDEX 01 13:21:51
  TRACK 06 AUDIO
    INDEX 01 18:04:22
  TRACK 07 AUDIO
    INDEX 01 21:08:02
  TRACK 08 AUDIO
    INDEX 01 24:44:31
  TRACK 09 AUDIO
    INDEX 01 29:15:35
  TRACK 10 AUDIO
    INDEX 01 32:24:56
  TRACK 11 AUDIO
    INDEX 01 35:25:37
  TRACK 12 AUDIO
    INDEX 01 38:37:13
  TRACK 13 AUDIO
    INDEX 01 42:42:38
  TRACK 14 AUDIO
    INDEX 01 46:56:30
  TRACK 15 AUDIO
    INDEX 01 51:32:10
  TRACK 16 AUDIO
    INDEX 01 56:18:40
  TRACK 17 AUDIO
    INDEX 01 62:07:09
  TRACK 18 AUDIO
    INDEX 01 66:55:69
  TRACK 19 AUDIO
    INDEX 01 70:21:27
  TRACK 20 AUDIO
    INDEX 01 72:52:31
Wertung: ()  
Hinzugefügt: 17 January 2011
Bewerte als Erster diesen Mix:
RSS Feed
RSS Feed
Sprache
Deutsch Englisch Französisch
Mixsuche
Suchbegriff
Genauer Wortlaut
Alle Worte (UND)
Ein Wort (ODER)
Statistik
36722 Mixe eingetragen
34785 Tracklisten
Newsletter
E-Mail
Anmelden
Abmelden
SPONSOREN