Mixkatalog
 Einloggen
Login
Passwort

The Other Side Of Mixing Step 1 Hits: 9  

The Other Side Of Mixing Step 1


Kurzbeschreibung:
DJ Mystic präsentiert The Other Side Of Mixing Step One. Gemixt von DJ Mystic & DJ Maximus.
 
Crew/DJ: DJ Mystic Reihe: The Other Side Of Mixing
Stil: Dance Erscheinungsjahr: 2007
CDs: 1 Spielzeit: 61:13
Trackliste:
Cue-Informationen:

FILE "filename.mp3" MP3
  TRACK 01 AUDIO
    INDEX 01 00:00:00
  TRACK 02 AUDIO
    INDEX 01 30:13:55
  TRACK 03 AUDIO
    INDEX 01 51:33:30
Wertung: (4)  
Hinzugefügt: 10 January 2011
RSS Feed
RSS Feed
Sprache
Deutsch Englisch Französisch
Mixsuche
Suchbegriff
Genauer Wortlaut
Alle Worte (UND)
Ein Wort (ODER)
Statistik
34555 Mixe eingetragen
32680 Tracklisten
Newsletter
E-Mail
Anmelden
Abmelden
SPONSOREN