Mixkatalog
 Einloggen
Login
Passwort

The Harder Side Of House 06 Hits: 7  

The Harder Side Of House 06


Kurzbeschreibung:
AC Seven präsentiert The Harder Side Of House Volume 6.
 
Crew/DJ: AC Seven Reihe: Hard House
Stil: House Erscheinungsjahr: 2004
CDs: 1 Spielzeit: 79:37
Trackliste:
Cue-Informationen:

FILE "filename.mp3" MP3
  TRACK 01 AUDIO
    INDEX 01 00:00:00
  TRACK 02 AUDIO
    INDEX 01 05:11:01
  TRACK 03 AUDIO
    INDEX 01 07:52:46
  TRACK 04 AUDIO
    INDEX 01 11:17:47
  TRACK 05 AUDIO
    INDEX 01 13:51:50
  TRACK 06 AUDIO
    INDEX 01 17:30:01
  TRACK 07 AUDIO
    INDEX 01 20:42:54
  TRACK 08 AUDIO
    INDEX 01 24:08:20
  TRACK 09 AUDIO
    INDEX 01 27:19:27
  TRACK 10 AUDIO
    INDEX 01 29:42:21
  TRACK 11 AUDIO
    INDEX 01 33:49:45
  TRACK 12 AUDIO
    INDEX 01 37:45:46
  TRACK 13 AUDIO
    INDEX 01 41:11:10
  TRACK 14 AUDIO
    INDEX 01 44:12:44
  TRACK 15 AUDIO
    INDEX 01 48:03:59
  TRACK 16 AUDIO
    INDEX 01 51:15:25
  TRACK 17 AUDIO
    INDEX 01 55:21:31
  TRACK 18 AUDIO
    INDEX 01 58:58:34
  TRACK 19 AUDIO
    INDEX 01 62:19:41
  TRACK 20 AUDIO
    INDEX 01 67:02:02
  TRACK 21 AUDIO
    INDEX 01 70:43:35
  TRACK 22 AUDIO
    INDEX 01 75:28:03
Wertung: ()  
Hinzugefügt: 29 December 2010
Bewerte als Erster diesen Mix:
RSS Feed
RSS Feed
Sprache
Deutsch Englisch Französisch
Mixsuche
Suchbegriff
Genauer Wortlaut
Alle Worte (UND)
Ein Wort (ODER)
Statistik
34842 Mixe eingetragen
32954 Tracklisten
Newsletter
E-Mail
Anmelden
Abmelden
SPONSOREN