Mixkatalog
SPONSOREN
 Einloggen
Login
Passwort

Jürgen Drews Seine Größten Erfolge Hits: 121  

Jürgen Drews Seine Größten Erfolge


Kurzbeschreibung:
Jürgen Drews - Seine Grössten Erfolge, als Medley & Remixe.
 
Crew/DJ: J Reihe: Jürgen Drews
Stil: Schlager Erscheinungsjahr: 1995
Anzahl Tonträger: 1 Spielzeit: 71:47
Trackliste:
Cue-Informationen:

FILE "filename.mp3" MP3
  TRACK 01 AUDIO
    INDEX 01 00:00:00
  TRACK 02 AUDIO
    INDEX 01 19:11:11
  TRACK 03 AUDIO
    INDEX 01 25:34:46
  TRACK 04 AUDIO
    INDEX 01 32:00:39
  TRACK 05 AUDIO
    INDEX 01 38:22:16
  TRACK 06 AUDIO
    INDEX 01 43:19:01
  TRACK 07 AUDIO
    INDEX 01 48:14:25
  TRACK 08 AUDIO
    INDEX 01 53:41:16
  TRACK 09 AUDIO
    INDEX 01 61:22:35
  TRACK 10 AUDIO
    INDEX 01 64:47:15
Wertung: (5)  
Hinzugefügt: 16 December 2010
RSS Feed
RSS Feed
Sprache
Deutsch Englisch Französisch
Mixsuche
Suchbegriff
Genauer Wortlaut
Alle Worte (UND)
Ein Wort (ODER)
Statistik
36074 Mixe eingetragen
34133 Tracklisten
Newsletter
E-Mail
Anmelden
Abmelden
SPONSOREN