Mixkatalog
 Einloggen
Login
Passwort

X-Mas Party '98 Hits: 21  

X-Mas Party \'98


Kurzbeschreibung:
Studio 33 präsentiert X-Mas Party ´98, The Ultimate X-Mas Collection. Mary-Mix-Mas gemixt von Mary & Joy.
 
Crew/DJ: Studio 33 Reihe: Sonstige
Stil: Pop Erscheinungsjahr: 1998
CDs: 1 Spielzeit: 83:39
Trackliste:
Cue-Informationen:

FILE "filename.mp3" MP3
  TRACK 01 AUDIO
    INDEX 01 00:00:15
  TRACK 02 AUDIO
    INDEX 01 03:07:46
  TRACK 03 AUDIO
    INDEX 01 10:43:19
  TRACK 04 AUDIO
    INDEX 01 17:48:35
  TRACK 05 AUDIO
    INDEX 01 24:16:66
  TRACK 06 AUDIO
    INDEX 01 29:02:29
  TRACK 07 AUDIO
    INDEX 01 34:28:31
  TRACK 08 AUDIO
    INDEX 01 38:26:66
  TRACK 09 AUDIO
    INDEX 01 42:38:60
  TRACK 10 AUDIO
    INDEX 01 48:16:58
  TRACK 11 AUDIO
    INDEX 01 61:19:16
Wertung: (3)  
Hinzugefügt: 12 December 2010
RSS Feed
RSS Feed
Sprache
Deutsch Englisch Französisch
Mixsuche
Suchbegriff
Genauer Wortlaut
Alle Worte (UND)
Ein Wort (ODER)
Statistik
34555 Mixe eingetragen
32680 Tracklisten
Newsletter
E-Mail
Anmelden
Abmelden
SPONSOREN