Mixkatalog
 Einloggen
Login
Passwort

Double Time 1 Hits: 355  

Double Time 1


Kurzbeschreibung:
Deep präsentiert Double Time Volume 1. German / English - The Mix.
 
Crew/DJ: Deep Reihe: Deep Double Time
Stil: Pop Erscheinungsjahr: 2006
Anzahl Tonträger: 1 Spielzeit: 78:39
Trackliste:
Cue-Informationen:

FILE "filename.mp3" MP3
  TRACK 01 AUDIO
    INDEX 01 00:00:00
  TRACK 02 AUDIO
    INDEX 01 04:16:14
  TRACK 03 AUDIO
    INDEX 01 07:59:21
  TRACK 04 AUDIO
    INDEX 01 12:02:16
  TRACK 05 AUDIO
    INDEX 01 16:33:38
  TRACK 06 AUDIO
    INDEX 01 19:42:22
  TRACK 07 AUDIO
    INDEX 01 23:37:70
  TRACK 08 AUDIO
    INDEX 01 27:33:02
  TRACK 09 AUDIO
    INDEX 01 32:23:66
  TRACK 10 AUDIO
    INDEX 01 36:42:68
  TRACK 11 AUDIO
    INDEX 01 41:33:47
  TRACK 12 AUDIO
    INDEX 01 45:48:63
  TRACK 13 AUDIO
    INDEX 01 49:52:70
  TRACK 14 AUDIO
    INDEX 01 52:56:35
  TRACK 15 AUDIO
    INDEX 01 58:57:18
  TRACK 16 AUDIO
    INDEX 01 62:58:19
  TRACK 17 AUDIO
    INDEX 01 66:39:57
  TRACK 18 AUDIO
    INDEX 01 71:49:25
  TRACK 19 AUDIO
    INDEX 01 75:42:37
Wertung: (1)  
Hinzugefügt: 24 November 2010
RSS Feed
RSS Feed
Sprache
Deutsch Englisch Französisch
Mixsuche
Suchbegriff
Genauer Wortlaut
Alle Worte (UND)
Ein Wort (ODER)
Statistik
13748 Mixe eingetragen
13445 Tracklisten
Newsletter
E-Mail
Anmelden
Abmelden
SPONSOREN