Mixkatalog
 Einloggen
Login
Passwort

Future Dance Mix Episode 4 Hits: 153  

Future Dance Mix Episode 4


Kurzbeschreibung:
Deep Heat präsentiert Future Dance Mix Episode 4.
 
Crew/DJ: Deep Heat Reihe: Future Dance Mix
Stil: Dance Erscheinungsjahr: 2003
CDs: 1 Spielzeit: 75:45
Trackliste:
Cue-Informationen:

FILE "filename.mp3" MP3
  TRACK 01 AUDIO
    INDEX 01 00:00:00
  TRACK 02 AUDIO
    INDEX 01 01:13:73
  TRACK 03 AUDIO
    INDEX 01 02:29:62
  TRACK 04 AUDIO
    INDEX 01 03:52:48
  TRACK 05 AUDIO
    INDEX 01 05:15:32
  TRACK 06 AUDIO
    INDEX 01 06:38:18
  TRACK 07 AUDIO
    INDEX 01 08:09:49
  TRACK 08 AUDIO
    INDEX 01 09:22:09
  TRACK 09 AUDIO
    INDEX 01 10:58:55
  TRACK 10 AUDIO
    INDEX 01 12:21:40
  TRACK 11 AUDIO
    INDEX 01 13:44:24
  TRACK 12 AUDIO
    INDEX 01 14:46:31
  TRACK 13 AUDIO
    INDEX 01 15:57:15
  TRACK 14 AUDIO
    INDEX 01 16:55:38
  TRACK 15 AUDIO
    INDEX 01 18:18:46
  TRACK 16 AUDIO
    INDEX 01 19:27:47
  TRACK 17 AUDIO
    INDEX 01 20:22:66
  TRACK 18 AUDIO
    INDEX 01 21:16:27
  TRACK 19 AUDIO
    INDEX 01 22:28:60
  TRACK 20 AUDIO
    INDEX 01 23:58:37
  TRACK 21 AUDIO
    INDEX 01 25:25:03
  TRACK 22 AUDIO
    INDEX 01 26:36:50
  TRACK 23 AUDIO
    INDEX 01 27:34:37
  TRACK 24 AUDIO
    INDEX 01 29:11:07
  TRACK 25 AUDIO
    INDEX 01 30:27:51
  TRACK 26 AUDIO
    INDEX 01 31:38:37
  TRACK 27 AUDIO
    INDEX 01 33:17:50
  TRACK 28 AUDIO
    INDEX 01 34:16:07
  TRACK 29 AUDIO
    INDEX 01 35:54:47
  TRACK 30 AUDIO
    INDEX 01 36:54:64
  TRACK 31 AUDIO
    INDEX 01 38:16:14
  TRACK 32 AUDIO
    INDEX 01 40:03:23
  TRACK 33 AUDIO
    INDEX 01 41:03:42
  TRACK 34 AUDIO
    INDEX 01 42:14:24
  TRACK 35 AUDIO
    INDEX 01 43:40:44
  TRACK 36 AUDIO
    INDEX 01 44:35:58
  TRACK 37 AUDIO
    INDEX 01 46:02:03
  TRACK 38 AUDIO
    INDEX 01 47:12:59
  TRACK 39 AUDIO
    INDEX 01 48:39:04
  TRACK 40 AUDIO
    INDEX 01 49:54:58
  TRACK 41 AUDIO
    INDEX 01 51:07:18
  TRACK 42 AUDIO
    INDEX 01 52:30:07
  TRACK 43 AUDIO
    INDEX 01 53:39:08
  TRACK 44 AUDIO
    INDEX 01 55:13:25
  TRACK 45 AUDIO
    INDEX 01 56:10:68
  TRACK 46 AUDIO
    INDEX 01 57:57:67
  TRACK 47 AUDIO
    INDEX 01 59:31:36
  TRACK 48 AUDIO
    INDEX 01 61:08:09
  TRACK 49 AUDIO
    INDEX 01 62:48:07
  TRACK 50 AUDIO
    INDEX 01 67:41:01
Wertung: (2)  
Hinzugefügt: 10 September 2010
RSS Feed
RSS Feed
Sprache
Deutsch Englisch Französisch
Mixsuche
Suchbegriff
Genauer Wortlaut
Alle Worte (UND)
Ein Wort (ODER)
Statistik
28765 Mixe eingetragen
27366 Tracklisten
Newsletter
E-Mail
Anmelden
Abmelden
SPONSOREN