Mixkatalog
 Einloggen
Login
Passwort

Future Dance Mix Episode 2 Hits: 142  

Future Dance Mix Episode 2


Kurzbeschreibung:
Deep Heat präsentiert Future Dance Mix Episode 2, gemixt von DJ Smoking Jack & DJ Pol.
 
Crew/DJ: Deep Heat Reihe: Future Dance Mix
Stil: Dance Erscheinungsjahr: 2002
Anzahl Tonträger: 1 Spielzeit: 73:14
Trackliste:
Cue-Informationen:

FILE "filename.mp3" MP3
  TRACK 01 AUDIO
    INDEX 01 00:00:00
  TRACK 02 AUDIO
    INDEX 01 00:39:20
  TRACK 03 AUDIO
    INDEX 01 01:34:18
  TRACK 04 AUDIO
    INDEX 01 03:08:55
  TRACK 05 AUDIO
    INDEX 01 04:44:11
  TRACK 06 AUDIO
    INDEX 01 06:31:42
  TRACK 07 AUDIO
    INDEX 01 08:22:41
  TRACK 08 AUDIO
    INDEX 01 09:57:08
  TRACK 09 AUDIO
    INDEX 01 11:49:62
  TRACK 10 AUDIO
    INDEX 01 13:15:46
  TRACK 11 AUDIO
    INDEX 01 13:42:40
  TRACK 12 AUDIO
    INDEX 01 14:48:46
  TRACK 13 AUDIO
    INDEX 01 16:25:53
  TRACK 14 AUDIO
    INDEX 01 17:51:36
  TRACK 15 AUDIO
    INDEX 01 19:04:29
  TRACK 16 AUDIO
    INDEX 01 19:30:53
  TRACK 17 AUDIO
    INDEX 01 20:41:24
  TRACK 18 AUDIO
    INDEX 01 21:21:35
  TRACK 19 AUDIO
    INDEX 01 22:43:10
  TRACK 20 AUDIO
    INDEX 01 24:37:06
  TRACK 21 AUDIO
    INDEX 01 25:45:44
  TRACK 22 AUDIO
    INDEX 01 27:12:26
  TRACK 23 AUDIO
    INDEX 01 28:08:42
  TRACK 24 AUDIO
    INDEX 01 29:15:67
  TRACK 25 AUDIO
    INDEX 01 30:38:15
  TRACK 26 AUDIO
    INDEX 01 31:58:68
  TRACK 27 AUDIO
    INDEX 01 33:27:74
  TRACK 28 AUDIO
    INDEX 01 34:59:37
  TRACK 29 AUDIO
    INDEX 01 36:39:63
  TRACK 30 AUDIO
    INDEX 01 38:07:24
  TRACK 31 AUDIO
    INDEX 01 39:41:35
  TRACK 32 AUDIO
    INDEX 01 41:17:09
  TRACK 33 AUDIO
    INDEX 01 42:38:22
  TRACK 34 AUDIO
    INDEX 01 44:11:39
  TRACK 35 AUDIO
    INDEX 01 45:33:73
  TRACK 36 AUDIO
    INDEX 01 47:01:14
  TRACK 37 AUDIO
    INDEX 01 47:57:67
  TRACK 38 AUDIO
    INDEX 01 49:09:67
  TRACK 39 AUDIO
    INDEX 01 51:38:00
  TRACK 40 AUDIO
    INDEX 01 52:58:65
  TRACK 41 AUDIO
    INDEX 01 53:42:28
  TRACK 42 AUDIO
    INDEX 01 55:00:44
  TRACK 43 AUDIO
    INDEX 01 56:06:59
  TRACK 44 AUDIO
    INDEX 01 57:03:51
  TRACK 45 AUDIO
    INDEX 01 58:14:28
  TRACK 46 AUDIO
    INDEX 01 59:01:30
  TRACK 47 AUDIO
    INDEX 01 60:17:06
  TRACK 48 AUDIO
    INDEX 01 61:32:57
  TRACK 49 AUDIO
    INDEX 01 62:36:68
  TRACK 50 AUDIO
    INDEX 01 63:20:58
  TRACK 51 AUDIO
    INDEX 01 64:41:72
  TRACK 52 AUDIO
    INDEX 01 65:44:20
  TRACK 53 AUDIO
    INDEX 01 66:23:73
  TRACK 54 AUDIO
    INDEX 01 69:51:05
Wertung: (1)  
Hinzugefügt: 10 September 2010
RSS Feed
RSS Feed
Sprache
Deutsch Englisch Französisch
Mixsuche
Suchbegriff
Genauer Wortlaut
Alle Worte (UND)
Ein Wort (ODER)
Statistik
35712 Mixe eingetragen
33766 Tracklisten
Newsletter
E-Mail
Anmelden
Abmelden
SPONSOREN