Mixkatalog
 Einloggen
Login
Passwort

Future Dance Mix Episode 1 Hits: 196  

Future Dance Mix Episode 1


Kurzbeschreibung:
Deep Heat präsentiert Future Dance Mix Episode 1, gemixt von DJ Smokig Jack & DJ Pol.
 
Crew/DJ: Deep Heat Reihe: Future Dance Mix
Stil: Dance Erscheinungsjahr: 2002
Anzahl Tonträger: 1 Spielzeit: 77:32
Trackliste:
Cue-Informationen:

FILE "filename.mp3" MP3
  TRACK 01 AUDIO
    INDEX 01 00:00:00
  TRACK 02 AUDIO
    INDEX 01 00:21:73
  TRACK 03 AUDIO
    INDEX 01 01:09:71
  TRACK 04 AUDIO
    INDEX 01 02:06:30
  TRACK 05 AUDIO
    INDEX 01 03:32:35
  TRACK 06 AUDIO
    INDEX 01 04:55:30
  TRACK 07 AUDIO
    INDEX 01 06:34:45
  TRACK 08 AUDIO
    INDEX 01 07:54:62
  TRACK 09 AUDIO
    INDEX 01 09:16:52
  TRACK 10 AUDIO
    INDEX 01 10:40:38
  TRACK 11 AUDIO
    INDEX 01 11:20:68
  TRACK 12 AUDIO
    INDEX 01 12:28:09
  TRACK 13 AUDIO
    INDEX 01 13:53:69
  TRACK 14 AUDIO
    INDEX 01 15:09:59
  TRACK 15 AUDIO
    INDEX 01 16:23:59
  TRACK 16 AUDIO
    INDEX 01 17:31:21
  TRACK 17 AUDIO
    INDEX 01 18:52:18
  TRACK 18 AUDIO
    INDEX 01 20:23:61
  TRACK 19 AUDIO
    INDEX 01 21:32:05
  TRACK 20 AUDIO
    INDEX 01 22:39:23
  TRACK 21 AUDIO
    INDEX 01 24:07:46
  TRACK 22 AUDIO
    INDEX 01 25:28:31
  TRACK 23 AUDIO
    INDEX 01 27:00:70
  TRACK 24 AUDIO
    INDEX 01 27:54:00
  TRACK 25 AUDIO
    INDEX 01 28:35:14
  TRACK 26 AUDIO
    INDEX 01 29:34:06
  TRACK 27 AUDIO
    INDEX 01 31:08:17
  TRACK 28 AUDIO
    INDEX 01 32:49:15
  TRACK 29 AUDIO
    INDEX 01 33:55:56
  TRACK 30 AUDIO
    INDEX 01 34:58:27
  TRACK 31 AUDIO
    INDEX 01 35:55:25
  TRACK 32 AUDIO
    INDEX 01 37:04:56
  TRACK 33 AUDIO
    INDEX 01 37:56:69
  TRACK 34 AUDIO
    INDEX 01 38:54:09
  TRACK 35 AUDIO
    INDEX 01 39:49:44
  TRACK 36 AUDIO
    INDEX 01 41:13:49
  TRACK 37 AUDIO
    INDEX 01 42:16:56
  TRACK 38 AUDIO
    INDEX 01 43:13:07
  TRACK 39 AUDIO
    INDEX 01 44:33:00
  TRACK 40 AUDIO
    INDEX 01 45:12:39
  TRACK 41 AUDIO
    INDEX 01 46:08:02
  TRACK 42 AUDIO
    INDEX 01 47:24:19
  TRACK 43 AUDIO
    INDEX 01 48:35:44
  TRACK 44 AUDIO
    INDEX 01 49:36:00
  TRACK 45 AUDIO
    INDEX 01 51:01:21
  TRACK 46 AUDIO
    INDEX 01 52:17:26
  TRACK 47 AUDIO
    INDEX 01 53:55:73
  TRACK 48 AUDIO
    INDEX 01 55:33:30
  TRACK 49 AUDIO
    INDEX 01 56:54:67
  TRACK 50 AUDIO
    INDEX 01 59:14:22
  TRACK 51 AUDIO
    INDEX 01 65:19:32
  TRACK 52 AUDIO
    INDEX 01 70:39:39
Wertung: (2)  
Hinzugefügt: 10 September 2010
RSS Feed
RSS Feed
Sprache
Deutsch Englisch Französisch
Mixsuche
Suchbegriff
Genauer Wortlaut
Alle Worte (UND)
Ein Wort (ODER)
Statistik
36310 Mixe eingetragen
34359 Tracklisten
Newsletter
E-Mail
Anmelden
Abmelden
SPONSOREN