Mixkatalog
 Einloggen
Login
Passwort

Dance Party 1 Hits: 123  

Dance Party 1


Kurzbeschreibung:
Strictly Dance präsentiert Dance Party Volume 1.
 
Crew/DJ: Strictly Dance Reihe: Dance Party
Stil: Dance Erscheinungsjahr: 1999
Anzahl Tonträger: 1 Spielzeit: 69:40
Trackliste:
Cue-Informationen:

FILE "filename.mp3" mp3
  TRACK 01 AUDIO
    INDEX 01 00:00:40
  TRACK 02 AUDIO
    INDEX 01 07:38:58
  TRACK 03 AUDIO
    INDEX 01 14:34:30
  TRACK 04 AUDIO
    INDEX 01 18:51:09
  TRACK 05 AUDIO
    INDEX 01 26:31:42
  TRACK 06 AUDIO
    INDEX 01 34:36:15
  TRACK 07 AUDIO
    INDEX 01 37:53:54
  TRACK 08 AUDIO
    INDEX 01 45:21:00
  TRACK 09 AUDIO
    INDEX 01 53:49:72
  TRACK 10 AUDIO
    INDEX 01 59:47:08
Wertung: (1)  
Hinzugefügt: 23 August 2010
RSS Feed
RSS Feed
Sprache
Deutsch Englisch Französisch
Mixsuche
Suchbegriff
Genauer Wortlaut
Alle Worte (UND)
Ein Wort (ODER)
Statistik
36711 Mixe eingetragen
34773 Tracklisten
Newsletter
E-Mail
Anmelden
Abmelden
SPONSOREN