Mixkatalog
 Einloggen
Login
Passwort

The Mix 19 Hits: 11  

The Mix 19


Kurzbeschreibung:
Strictly Dance Records präsentiert Strictly Dance The Mix Volume 19.
 
Crew/DJ: Strictly Dance Reihe: Story
Stil: Dance Erscheinungsjahr: 2000
CDs: 1 Spielzeit: 76:44
Trackliste:
Cue-Informationen:

FILE "filename.mp3" MP3
  TRACK 01 AUDIO
    INDEX 01 00:00:00
  TRACK 02 AUDIO
    INDEX 01 02:56:54
  TRACK 03 AUDIO
    INDEX 01 04:47:36
  TRACK 04 AUDIO
    INDEX 01 06:26:27
  TRACK 05 AUDIO
    INDEX 01 09:13:08
  TRACK 06 AUDIO
    INDEX 01 10:42:09
  TRACK 07 AUDIO
    INDEX 01 14:32:73
  TRACK 08 AUDIO
    INDEX 01 19:30:02
  TRACK 09 AUDIO
    INDEX 01 22:01:17
  TRACK 10 AUDIO
    INDEX 01 27:26:45
  TRACK 11 AUDIO
    INDEX 01 29:17:30
  TRACK 12 AUDIO
    INDEX 01 31:13:17
  TRACK 13 AUDIO
    INDEX 01 32:08:27
  TRACK 14 AUDIO
    INDEX 01 33:04:29
  TRACK 15 AUDIO
    INDEX 01 34:41:09
  TRACK 16 AUDIO
    INDEX 01 36:32:58
  TRACK 17 AUDIO
    INDEX 01 38:23:52
  TRACK 18 AUDIO
    INDEX 01 40:45:62
  TRACK 19 AUDIO
    INDEX 01 42:48:74
  TRACK 20 AUDIO
    INDEX 01 44:24:29
  TRACK 21 AUDIO
    INDEX 01 45:25:07
  TRACK 22 AUDIO
    INDEX 01 46:36:51
  TRACK 23 AUDIO
    INDEX 01 49:11:61
  TRACK 24 AUDIO
    INDEX 01 51:03:67
  TRACK 25 AUDIO
    INDEX 01 53:26:63
  TRACK 26 AUDIO
    INDEX 01 55:07:69
  TRACK 27 AUDIO
    INDEX 01 56:12:73
  TRACK 28 AUDIO
    INDEX 01 57:37:08
  TRACK 29 AUDIO
    INDEX 01 59:36:51
  TRACK 30 AUDIO
    INDEX 01 61:31:42
  TRACK 31 AUDIO
    INDEX 01 63:03:58
  TRACK 32 AUDIO
    INDEX 01 66:11:47
  TRACK 33 AUDIO
    INDEX 01 68:47:43
  TRACK 34 AUDIO
    INDEX 01 70:40:73
  TRACK 35 AUDIO
    INDEX 01 73:16:52
  TRACK 36 AUDIO
    INDEX 01 75:10:26
  TRACK 37 AUDIO
    INDEX 01 75:54:49
Wertung: ()  
Hinzugefügt: 23 August 2010
Bewerte als Erster diesen Mix:
RSS Feed
RSS Feed
Sprache
Deutsch Englisch Französisch
Mixsuche
Suchbegriff
Genauer Wortlaut
Alle Worte (UND)
Ein Wort (ODER)
Statistik
34842 Mixe eingetragen
32954 Tracklisten
Newsletter
E-Mail
Anmelden
Abmelden
SPONSOREN