Mixkatalog
 Einloggen
Login
Passwort

Attack 08 Hits: 1333  

Attack 08


Kurzbeschreibung:
Shark präsentiert Attack Volume 8.
 
Crew/DJ: Shark Reihe: Attack
Stil: Dance Erscheinungsjahr: 1995
CDs: 1 Spielzeit: 74:31
Trackliste:
Cue-Informationen:

FILE "filename.mp3" MP3
  TRACK 01 AUDIO
    INDEX 01 00:00:00
  TRACK 02 AUDIO
    INDEX 01 34:33:15
  TRACK 03 AUDIO
    INDEX 01 56:23:58
Wertung: (2)  
Hinzugefügt: 20 August 2010
RSS Feed
RSS Feed
Sprache
Deutsch Englisch Französisch
Mixsuche
Suchbegriff
Genauer Wortlaut
Alle Worte (UND)
Ein Wort (ODER)
Statistik
29959 Mixe eingetragen
28329 Tracklisten
Newsletter
E-Mail
Anmelden
Abmelden
SPONSOREN