Mixkatalog
 Einloggen
Login
Passwort

Attack 05 Hits: 799  

Attack 05


Kurzbeschreibung:
Shark präsentiert Attack Volume 5.
 
Crew/DJ: Shark Reihe: Attack
Stil: Dance Erscheinungsjahr: 1994
CDs: 1 Spielzeit: 72:31
Trackliste:
Cue-Informationen:

FILE "filename.mp3" MP3
  TRACK 01 AUDIO
    INDEX 00 00:00:00
  TRACK 02 AUDIO
    INDEX 01 23:26:00
  TRACK 03 AUDIO
    INDEX 01 39:10:52
  TRACK 04 AUDIO
    INDEX 01 58:34:35
Wertung: (6)  
Hinzugefügt: 20 August 2010
RSS Feed
RSS Feed
Sprache
Deutsch Englisch Französisch
Mixsuche
Suchbegriff
Genauer Wortlaut
Alle Worte (UND)
Ein Wort (ODER)
Statistik
30033 Mixe eingetragen
28406 Tracklisten
Newsletter
E-Mail
Anmelden
Abmelden
SPONSOREN