Mixkatalog
 Einloggen
Login
Passwort

33⅓ 02 Hits: 1199  

33⅓ 02


Kurzbeschreibung:
Studio 33 ein Drittel Volume 2 ...Spacenight, The Ultimative Moonwalkparty, gemixt von MC Enterprise.
 
Crew/DJ: Studio 33 Reihe: Ein Drittel
Stil: Dance Erscheinungsjahr: 1997
CDs: 1 Spielzeit: 73:16
Trackliste:
Cue-Informationen:

FILE "filename.mp3" MP3
  TRACK 01 AUDIO
    INDEX 00 00:00:00
  TRACK 02 AUDIO
    INDEX 01 00:42:68
  TRACK 03 AUDIO
    INDEX 01 10:18:64
  TRACK 04 AUDIO
    INDEX 01 18:32:70
  TRACK 05 AUDIO
    INDEX 01 29:50:16
  TRACK 06 AUDIO
    INDEX 01 37:06:52
  TRACK 07 AUDIO
    INDEX 01 42:30:48
  TRACK 08 AUDIO
    INDEX 01 46:54:28
  TRACK 09 AUDIO
    INDEX 01 53:42:51
  TRACK 10 AUDIO
    INDEX 01 59:23:24
  TRACK 11 AUDIO
    INDEX 01 67:43:45
Wertung: (6)  
Hinzugefügt: 19 August 2010
RSS Feed
RSS Feed
Sprache
Deutsch Englisch Französisch
Mixsuche
Suchbegriff
Genauer Wortlaut
Alle Worte (UND)
Ein Wort (ODER)
Statistik
30001 Mixe eingetragen
28600 Tracklisten
Newsletter
E-Mail
Anmelden
Abmelden
SPONSOREN