Mixkatalog
 Einloggen
Login
Passwort

The New Dance X-Plosion 6 Hits: 373  

The New Dance X-Plosion 6


Kurzbeschreibung:
Diablo präsentiert The New Dance X-Plosion Volume 6 - The 2nd Mixbattle. Best Mix in Town is Back. DJ Masterfaker vs. DJ Luckyloop The Century Mix 2.
 
Crew/DJ: Diablo Reihe: Dance X-Plosion
Stil: Dance Erscheinungsjahr: 2004
CDs: 1 Spielzeit: 73:05
Trackliste:
Cue-Informationen:

FILE "filename.mp3" MP3
  TRACK 01 AUDIO
    INDEX 01 00:00:00
  TRACK 02 AUDIO
    INDEX 01 01:20:50
  TRACK 03 AUDIO
    INDEX 01 29:06:17
  TRACK 04 AUDIO
    INDEX 01 30:10:16
  TRACK 05 AUDIO
    INDEX 01 64:17:20
  TRACK 06 AUDIO
    INDEX 01 69:18:27
Wertung: (2)  
Hinzugefügt: 13 August 2010
RSS Feed
RSS Feed
Sprache
Deutsch Englisch Französisch
Mixsuche
Suchbegriff
Genauer Wortlaut
Alle Worte (UND)
Ein Wort (ODER)
Statistik
30001 Mixe eingetragen
28600 Tracklisten
Newsletter
E-Mail
Anmelden
Abmelden
SPONSOREN