Mixkatalog
 Einloggen
Login
Passwort

Real Fake 3 Hits: 1735  

Real Fake 3


Kurzbeschreibung:
DJ Masterfaker präsentiert Real Fake Volume 3 Limited Edition. Gibt es auch als einfache Ausgabe ohne Bonusmix CD.
 
Crew/DJ: DJ Masterfaker Reihe: Real Fake
Stil: Dance Erscheinungsjahr: 2001
CDs: 2 Spielzeit: 91:42
Trackliste:
Cue-Informationen:

FILE "filename.mp3" MP3
  TRACK 01 AUDIO
    INDEX 01 00:00:00
  TRACK 02 AUDIO
    INDEX 01 22:25:29
  TRACK 03 AUDIO
    INDEX 01 45:46:30
  TRACK 04 AUDIO
    INDEX 01 57:11:51
  TRACK 05 AUDIO
    INDEX 01 65:59:37

FILE "filename Bonus CD.mp3" MP3
  TRACK 01 AUDIO
    INDEX 01 00:00:00
  TRACK 02 AUDIO
    INDEX 01 01:37:51
  TRACK 03 AUDIO
    INDEX 01 02:33:60
  TRACK 04 AUDIO
    INDEX 01 03:00:69
  TRACK 05 AUDIO
    INDEX 01 03:28:58
  TRACK 06 AUDIO
    INDEX 01 04:09:68
  TRACK 07 AUDIO
    INDEX 01 05:35:00
  TRACK 08 AUDIO
    INDEX 01 06:57:28
  TRACK 09 AUDIO
    INDEX 01 08:08:10
  TRACK 10 AUDIO
    INDEX 01 09:05:51
  TRACK 11 AUDIO
    INDEX 01 10:16:69
  TRACK 12 AUDIO
    INDEX 01 11:55:68
  TRACK 13 AUDIO
    INDEX 01 13:06:17
  TRACK 14 AUDIO
    INDEX 01 14:01:25
  TRACK 15 AUDIO
    INDEX 01 15:40:06
  TRACK 16 AUDIO
    INDEX 01 16:33:35
  TRACK 17 AUDIO
    INDEX 01 18:07:20
Wertung: (13)  
Hinzugefügt: 11 August 2010
RSS Feed
RSS Feed
Sprache
Deutsch Englisch Französisch
Mixsuche
Suchbegriff
Genauer Wortlaut
Alle Worte (UND)
Ein Wort (ODER)
Statistik
29581 Mixe eingetragen
28170 Tracklisten
Newsletter
E-Mail
Anmelden
Abmelden
SPONSOREN