Mixkatalog
SPONSOREN
 Einloggen
Login
Passwort

Helene Fischer & Andrea Berg Megamix Hits: 186  

Helene Fischer & Andrea Berg Megamix


Kurzbeschreibung:
Ruhrpott Records präsentiert Helene Fischer & Andrea Berg Megamix.
 
Crew/DJ: Ruhrpott Records Reihe: Megamix
Stil: Schlager Erscheinungsjahr: 2013
Anzahl Tonträger: 1 Spielzeit: 79:00
Trackliste:
Cue-Informationen:

FILE "filename.mp3" MP3
  TRACK 01 AUDIO
    INDEX 01 00:00:00
  TRACK 02 AUDIO
    INDEX 01 00:14:64
  TRACK 03 AUDIO
    INDEX 01 01:48:46
  TRACK 04 AUDIO
    INDEX 01 02:28:01
  TRACK 05 AUDIO
    INDEX 01 04:21:31
  TRACK 06 AUDIO
    INDEX 01 06:22:27
  TRACK 07 AUDIO
    INDEX 01 07:56:63
  TRACK 08 AUDIO
    INDEX 01 09:28:21
  TRACK 09 AUDIO
    INDEX 01 10:53:04
  TRACK 10 AUDIO
    INDEX 01 12:29:62
  TRACK 11 AUDIO
    INDEX 01 13:43:28
  TRACK 12 AUDIO
    INDEX 01 15:01:08
  TRACK 13 AUDIO
    INDEX 01 15:56:14
  TRACK 14 AUDIO
    INDEX 01 17:20:58
  TRACK 15 AUDIO
    INDEX 01 18:32:15
  TRACK 16 AUDIO
    INDEX 01 20:30:14
  TRACK 17 AUDIO
    INDEX 01 23:03:36
  TRACK 18 AUDIO
    INDEX 01 24:32:70
  TRACK 19 AUDIO
    INDEX 01 25:50:16
  TRACK 20 AUDIO
    INDEX 01 27:25:27
  TRACK 21 AUDIO
    INDEX 01 30:05:30
  TRACK 22 AUDIO
    INDEX 01 31:21:22
  TRACK 23 AUDIO
    INDEX 01 33:01:43
  TRACK 24 AUDIO
    INDEX 01 33:46:67
  TRACK 25 AUDIO
    INDEX 01 35:37:15
  TRACK 26 AUDIO
    INDEX 01 36:42:49
  TRACK 27 AUDIO
    INDEX 01 38:03:74
  TRACK 28 AUDIO
    INDEX 01 39:06:31
  TRACK 29 AUDIO
    INDEX 01 40:45:10
  TRACK 30 AUDIO
    INDEX 01 42:18:10
  TRACK 31 AUDIO
    INDEX 01 43:38:10
  TRACK 32 AUDIO
    INDEX 01 44:38:10
  TRACK 33 AUDIO
    INDEX 01 46:25:01
  TRACK 34 AUDIO
    INDEX 01 48:11:67
  TRACK 35 AUDIO
    INDEX 01 49:25:55
  TRACK 36 AUDIO
    INDEX 01 50:40:56
  TRACK 37 AUDIO
    INDEX 01 51:58:62
  TRACK 38 AUDIO
    INDEX 01 53:47:17
  TRACK 39 AUDIO
    INDEX 01 55:04:23
  TRACK 40 AUDIO
    INDEX 01 56:47:68
  TRACK 41 AUDIO
    INDEX 01 57:50:71
  TRACK 42 AUDIO
    INDEX 01 58:58:29
  TRACK 43 AUDIO
    INDEX 01 60:06:29
  TRACK 44 AUDIO
    INDEX 01 61:24:29
  TRACK 45 AUDIO
    INDEX 01 62:28:28
  TRACK 46 AUDIO
    INDEX 01 63:36:28
  TRACK 47 AUDIO
    INDEX 01 64:48:74
  TRACK 48 AUDIO
    INDEX 01 65:58:10
  TRACK 49 AUDIO
    INDEX 01 67:07:66
  TRACK 50 AUDIO
    INDEX 01 68:13:39
  TRACK 51 AUDIO
    INDEX 01 69:52:62
  TRACK 52 AUDIO
    INDEX 01 71:03:58
  TRACK 53 AUDIO
    INDEX 01 72:14:55
  TRACK 54 AUDIO
    INDEX 01 73:29:65
  TRACK 55 AUDIO
    INDEX 01 74:42:06
  TRACK 56 AUDIO
    INDEX 01 75:51:19
  TRACK 57 AUDIO
    INDEX 01 77:01:37
Wertung: (21)  
Hinzugefügt: 22 December 2013
RSS Feed
RSS Feed
Sprache
Deutsch Englisch Französisch
Mixsuche
Suchbegriff
Genauer Wortlaut
Alle Worte (UND)
Ein Wort (ODER)
Statistik
35754 Mixe eingetragen
33814 Tracklisten
Newsletter
E-Mail
Anmelden
Abmelden
SPONSOREN