Mixkatalog
 Einloggen
Login
Passwort

Number One 23 Hits: 1079  

Number One 23


Kurzbeschreibung:
DJ AM präsentiert No. One Volume 23 - The 90´s Party.
 
Crew/DJ: DJ AM Reihe: Number One
Stil: Dance Erscheinungsjahr: 2008
CDs: 1 Spielzeit: 73:35
Trackliste:
Cue-Informationen:

FILE "filename.mp3" MP3
  TRACK 01 AUDIO
    INDEX 01 00:00:00
  TRACK 02 AUDIO
    INDEX 01 02:21:51
  TRACK 03 AUDIO
    INDEX 01 16:07:39
  TRACK 04 AUDIO
    INDEX 01 38:11:09
  TRACK 05 AUDIO
    INDEX 01 61:46:34
  TRACK 06 AUDIO
    INDEX 01 66:23:61
  TRACK 07 AUDIO
    INDEX 01 69:59:47
Wertung: (3)  
Hinzugefügt: 4 August 2010
RSS Feed
RSS Feed
Sprache
Deutsch Englisch Französisch
Mixsuche
Suchbegriff
Genauer Wortlaut
Alle Worte (UND)
Ein Wort (ODER)
Statistik
32432 Mixe eingetragen
30813 Tracklisten
Newsletter
E-Mail
Anmelden
Abmelden
SPONSOREN