Mixkatalog
SPONSOREN
 Einloggen
Login
Passwort

Dance Party 5 Hits: 91  

Dance Party 5


Kurzbeschreibung:
Royal präsentiert Dance Party Volume 5. Oktoberfest 2001 - Der beste Wiesn-Mix.
 
Crew/DJ: Royal Reihe: Dance Party
Stil: Party Erscheinungsjahr: 2001
Anzahl Tonträger: 1 Spielzeit: 75:07
Trackliste:
Cue-Informationen:

FILE "filename.mp3" MP3
  TRACK 01 AUDIO
    INDEX 01 00:00:00
  TRACK 02 AUDIO
    INDEX 01 00:33:29
  TRACK 03 AUDIO
    INDEX 01 06:15:54
  TRACK 04 AUDIO
    INDEX 01 24:38:10
  TRACK 05 AUDIO
    INDEX 01 41:08:45
  TRACK 06 AUDIO
    INDEX 01 59:20:73
Wertung: ()  
Hinzugefügt: 21 April 2010
Bewerte als Erster diesen Mix:
RSS Feed
RSS Feed
Sprache
Deutsch Englisch Französisch
Mixsuche
Suchbegriff
Genauer Wortlaut
Alle Worte (UND)
Ein Wort (ODER)
Statistik
36050 Mixe eingetragen
34108 Tracklisten
Newsletter
E-Mail
Anmelden
Abmelden
SPONSOREN