Mixkatalog
 Einloggen
Login
Passwort

The New Dance X-Plosion 5 Hits: 1177  

The New Dance X-Plosion 5


Kurzbeschreibung:
Diablo präsentiert The New Dance X-Plosion Volume 5, gemixt von DJ Luckyloop.
 
Crew/DJ: Diablo Reihe: Dance X-Plosion
Stil: Dance Erscheinungsjahr: 2002
CDs: 1 Spielzeit: 73:25
Trackliste:
Cue-Informationen:

FILE "filename.mp3" MP3 
  TRACK 01 AUDIO 
    INDEX 01 00:00:00 
  TRACK 02 AUDIO 
    INDEX 01 00:17:41 
  TRACK 03 AUDIO 
    INDEX 01 26:27:67 
  TRACK 04 AUDIO 
    INDEX 01 28:35:39 
  TRACK 05 AUDIO 
    INDEX 01 48:31:00 
  TRACK 06 AUDIO 
    INDEX 01 51:17:31 
  TRACK 07 AUDIO 
    INDEX 01 61:47:63 
  TRACK 08 AUDIO 
    INDEX 01 66:15:51 
  TRACK 09 AUDIO 
    INDEX 01 69:33:07
Wertung: (9)  
Hinzugefügt: 21 April 2010
RSS Feed
RSS Feed
Sprache
Deutsch Englisch Französisch
Mixsuche
Suchbegriff
Genauer Wortlaut
Alle Worte (UND)
Ein Wort (ODER)
Statistik
28765 Mixe eingetragen
27366 Tracklisten
Newsletter
E-Mail
Anmelden
Abmelden
SPONSOREN