Mixkatalog
 Einloggen
Login
Passwort

The New Dance X-Plosion 4 Hits: 23  

The New Dance X-Plosion 4


Kurzbeschreibung:
Diablo präsentiert The New Dance X-Plosion Volume 4. The Ultimate Yearmix 2001 gemixt von DJ Luckyloop.
 
Crew/DJ: Diablo Reihe: Dance X-Plosion
Stil: Dance Erscheinungsjahr: 2002
CDs: 1 Spielzeit: 74:06
Trackliste:
Cue-Informationen:

FILE "filename.mp3" MP3
  TRACK 01 AUDIO
    INDEX 01 00:00:00
  TRACK 02 AUDIO
    INDEX 01 00:44:45
  TRACK 03 AUDIO
    INDEX 01 03:11:61
  TRACK 04 AUDIO
    INDEX 01 07:48:01
  TRACK 05 AUDIO
    INDEX 01 13:40:56
  TRACK 06 AUDIO
    INDEX 01 18:24:10
  TRACK 07 AUDIO
    INDEX 01 23:14:45
  TRACK 08 AUDIO
    INDEX 01 29:34:56
  TRACK 09 AUDIO
    INDEX 01 37:20:37
  TRACK 10 AUDIO
    INDEX 01 42:43:15
  TRACK 11 AUDIO
    INDEX 01 50:24:02
  TRACK 12 AUDIO
    INDEX 01 70:11:33
Wertung: (31)  
Hinzugefügt: 21 April 2010
RSS Feed
RSS Feed
Sprache
Deutsch Englisch Französisch
Mixsuche
Suchbegriff
Genauer Wortlaut
Alle Worte (UND)
Ein Wort (ODER)
Statistik
34690 Mixe eingetragen
32811 Tracklisten
Newsletter
E-Mail
Anmelden
Abmelden
SPONSOREN